Ссылка на приватное зеркало всего за 1$. Внимание количество ограничено!!!

OK

1+1

iTunes

мы

OK

1

WEB-DLRip

Джокер

Пифагор

Ведьмак / The Witcher сериал

iTunes

ПШазам

ОК

Оно 2

iTunes

30
pack

Вам бонус

ВАЖНО

!!Акция!!

Alien_RageХит недели

RePack

Resident Evil 21

ИГРА 18+

pack

RePack

jed

RePack

fifa19

RePack

Assassins Creed: Odyssey

RePack

NEED FOR SPEED™ PAYBACK

4 сезон

9 сезон

Бесстыжие 9 сезон

Все сериалы

все сериалы на PB.wtf

RePack

FAR CRY 5
  

Восставшие мертвецы / Dead Rising (Зэк Липовски) [2015, США, ужасы, HDRip] MVO pb.wtf

Восставшие мертвецы через торрент pb.wtf

Размер: 1.46 GB | Добавлен: 4 года 4 мес. назад | Торрент скачан:636 раз
Скачать  

25-09-2015 14:15 Восставшие мертвецы Скачать торрент  

Восставшие мертвецы / Dead Rising


  • Год выпуска: 2015
  • Страна: США
  • Жанр: ужасы
  • Продолжительность: 01:58:07
  • Перевод: Профессиональный многоголосый [Официальный]

  • Режиссер: Зэк Липовски / Zach Lipovsky
  • В ролях:

    Джесси Меткалф (Chase), Меган Ори (Crystal), Вирджиния Мэдсен (Maggie), Киган Коннор Трейси (Jordan), Алекс Паунович (Logan), Деннис Хейсбёрт (General Lyons), Гари Джонс (Norton), Кэрри Гензел (Susan), Роб Риггл (Frank West), Риз Александр (Shearson), Харли Моренштейн (Pyro Biker), Джулия Андерсон (Amy)

  • Описание:
    США охватила глобальная эпидемия, в результате которой люди превращаются в кровожадных зомби. Чейз Картер - журналист, который отправляется в опасную зону, вместе с оператором Трейси, чтобы сделать сюжет о надвигающейся катастрофе. Во время съемок они берут интервью у здоровой девушки Кристал, которая рассказывает ужасную правду о том, что в зоне заражения все обречены. В скором порядке власти принимают решение изолировать эту зону, не сделав ничего для эвакуации здоровых людей. Теперь журналисту и группе людей, избежавших заражения, предстоит сделать все возможное, чтобы выбраться из опасной зоны, заполненной кровожадными зомби...
  • Рейтинг:



  • Качество: HDRip
  • Формат: :AVI
  • Видео кодек: XviD
  • Аудио кодек: AC3
  • Видео: 720x304 (2.35:1), 1569 kbps, 23,976 fps, 0,299 bpp
  • Аудио: 2.0 / 48 kHz / 192 kbps / 16 bit
  • оформление: GEKADOL

    Код:

    General
    Complete name                            : F:\MePTBe41Ha.2015.L2.HDRip.1.46Gb.avi
    Format                                   : AVI
    Format/Info                              : Audio Video Interleave
    File size                                : 1.46 GiB
    Duration                                 : 1h 58mn
    Overall bit rate                         : 1 771 Kbps
    Writing application                      : VirtualDubMod 1.5.10.3 | www.virtualdub-fr.org || (build 2550/release)
    Writing library                          : VirtualDubMod build 2550/release

    Video
    ID                                       : 0
    Format                                   : MPEG-4 Visual
    Format profile                           : Advanced Simple@L5
    Format settings, BVOP                    : 2
    Format settings, QPel                    : No
    Format settings, GMC                     : No warppoints
    Format settings, Matrix                  : Default (MPEG)
    Codec ID                                 : XVID
    Codec ID/Hint                            : XviD
    Duration                                 : 1h 58mn
    Bit rate                                 : 1 570 Kbps
    Width                                    : 720 pixels
    Height                                   : 304 pixels
    Display aspect ratio                     : 2.35:1
    Frame rate                               : 23.976 fps
    Color space                              : YUV
    Chroma subsampling                       : 4:2:0
    Bit depth                                : 8 bits
    Scan type                                : Progressive
    Compression mode                         : Lossy
    Bits/(Pixel*Frame)                       : 0.299
    Stream size                              : 1.30 GiB (89%)
    Writing library                          : XviD 1.2.1 (UTC 2008-12-04)

    Audio
    ID                                       : 1
    Format                                   : AC-3
    Format/Info                              : Audio Coding 3
    Mode extension                           : CM (complete main)
    Codec ID                                 : 2000
    Duration                                 : 1h 58mn
    Bit rate mode                            : Constant
    Bit rate                                 : 192 Kbps
    Channel(s)                               : 2 channels
    Channel positions                        : Front: L R
    Sampling rate                            : 48.0 KHz
    Bit depth                                : 16 bits
    Compression mode                         : Lossy
    Stream size                              : 162 MiB (11%)
    Alignment                                : Split accross interleaves
    Interleave, duration                     : 42 ms (1.00 video frame)
    Interleave, preload duration             : 500 ms






    Скриншоты:



    pb.wtf



  • Скачать Восставшие мертвецы через торрент http://i4.imageban.ru/out/2015/07/28/1fa88e123b4e582cac9300c793d07af6.jpg Скачать фильм Восставшие мертвецы через торрент бесплантно в хорошем качестве Описание: США охватила глобальная эпидемия, в результате которой люди превращаются в кровожадных зомби. Чейз Картер - журналист, который ... 8.3 10 29
    Торрент: Зарегистрирован [2015-09-25 14:15] · скачан: 636 раз
    Статус: T временная
    Размер: 1.46 GB
    Как cкачать? Как скачать Восставшие мертвецы через торрент | qTorrent

    % Раздел Тема Автор DL S | L
    T Релизы по Парсеру [Игры, Сериалы и Фильмы и другое...] [ 3.48 GB ] Восставшие мертвецы: Конец игры / Dead Rising: Endgame [2016 BDRip 720p MVO] Ворон Скачать
    1 | 0

    28-11-2019 20:33  

    Отключить всю рекламу на сайте


    25-09-2015 15:47 Восставшие мертвецы Скачать торрент  

    по идиотской игре еще и фильм сняли facepalm pb.wtf



    25-09-2015 16:23 Восставшие мертвецы Скачать торрент  

    killermax2013 писал(а):

    по идиотской игре еще и фильм сняли facepalm

    Да нет,это игру по фильму сделали))) Первые воставшие вышли вроде в1981годуpb.wtf



    25-09-2015 17:05 Восставшие мертвецы Скачать торрент  

    killermax2013, 3 часть норм.игруха..я первый раз почти прошел игру про зомби. Обычно пропускаю такой жанр. Весело и забавно.pb.wtf



    25-09-2015 17:39 Восставшие мертвецы Скачать торрент  

    Ворон писал(а):

    killermax2013, 3 часть норм.игруха..я первый раз почти прошел игру про зомби. Обычно пропускаю такой жанр. Весело и забавно.

    да ну на играть в такой дебилизм,ни сюжета ни смыслаpb.wtf



    30-09-2015 18:32 Восставшие мертвецы Скачать торрент  

    killermax2013 писал(а):

    Ворон писал(а):

    killermax2013, 3 часть норм.игруха..я первый раз почти прошел игру про зомби. Обычно пропускаю такой жанр. Весело и забавно.

    да ну на играть в такой дебилизм,ни сюжета ни смысла

    Правильно играй лучше в свою любимую Dandy sarcasticpb.wtf



      Дорогой пользователь! Огромная просьба, поблагодарите релизера, оцените раздачу и оставьте свои комментарий, если Вы скачали Восставшие мертвецы через торрент бесплатно! Внесите свою лепту в развитие PiratBit!
      Комментировать посты могут только пользователи прошедшие не сложную регистрацию
      Показать сообщения:    

      Восставшие мертвецы через торрент
      Скачать бесплатно Восставшие мертвецы
      Восставшие мертвецы скачать торрент
      Восставшие мертвецы смотреть онлайн
      Cкачать фильм Восставшие мертвецы бесплатно
      Восставшие мертвецы скачать торрент в хорошем качестве
      Восставшие мертвецы смотреть онлайн бесплатно в хорошем качестве


      Вы не можете начинать темы
      Вы не можете отвечать на сообщения
      Вы не можете редактировать свои сообщения
      Вы не можете удалять свои сообщения
      Вы не можете голосовать в опросах
      Вы не можете прикреплять файлы к сообщениям
      Вы можете скачивать файлы