Ссылка на приватное зеркало нашего сайта всего за 1$. Внимание количество ограничено!!!

2 сезон

iTunes

1 сезон

1

iTunes

iTunes

iTunes

1 сезон

RePack

30

ИГРА 18+

pack

ВАЖНО

!!Акция!!

Alien_RageХит недели

RePack

MK11
pack

Забери бонус

RePack

jed

!!Акция!!

Alien_Rage

RePack

fifa19

RePack

Assassins Creed: Odyssey

RePack

NEED FOR SPEED™ PAYBACK

4 сезон

9 сезон

Бесстыжие 9 сезон

Все сериалы

все сериалы на PB.wtf

RePack

FAR CRY 5
  

Антураж / Entourage (Даг Эллин) [2015, комедия, BDRip 720p, Дубляж] iTunes pb.wtf

Антураж через торрент pb.wtf

Размер: 6.66 GB | Добавлен: 5 лет назад | Торрент скачан:268 раз
Скачать  

25-09-2015 16:32 Антураж Скачать торрент  


Антураж / Entourage
««The ride ain't over»»

ИНФОРМАЦИЯ:
Год выпуска:2015
Страна: США
Жанр: комедия
Продолжительность: 01:44:28
Перевод: Дубляж - [Лицензия / iTunes]
Субтитры: английские, английские (SDH), Spanish, French,
Режиссер: Даг Эллин

В Ролях:


Кевин Коннолли (Eric), Эдриан Гренье (Vince), Кевин Диллон (Johnny Drama), Джерри Феррара (Turtle), Джереми Пивен (Ari Gold), Эммануэль Шрики (Sloan), Хэйли Джоэл Осмент (Travis McCredle), Ронда Раузи (Ronda Rousey), Рекс Ли (Lloyd), Билли Боб Торнтон (Larsen McCredle), Перри Ривз (Mrs. Ari), Деби Мейзар (Shauna)

Описание:
Звезда кино Винс Чейз и его друзья бросают вызов капризному и зачастую жестокому миру Голливуда.

  • Мировая премьера:27 мая 2015

    ТЕХ.ДАННЫЕ:
    Качество: BDRip 720p
    Формат: MKV
    Видео: AVC, 1280x534 (2.40:1), 7918 kbps, 23,976 fps, 0,483 bpp
    Аудио №1: русский / AC3 / 5.1 / 48 kHz / 384 kbps / 16 bit ||
    Аудио №2: английский / AC3 / 5.1 / 48 kHz / 640 kbps / 16 bit
    Навигация по главам: есть


    General
    Unique ID : 236715483979250218492085400425266024220 (0xB215BE6F8C169AD08977D4A076160F1C)
    Complete name : D:\Торенты\Entourage.2015.720p.BluRay.DD5.1.x264-IDE.mkv
    Format : Matroska
    Format version : Version 2
    File size : 6.66 GiB
    Duration : 1h 44mn
    Overall bit rate : 9 124 Kbps
    Movie name : hungdaita @ TayTO
    Encoded date : UTC 2015-09-25 14:35:06
    Writing application : mkvmerge v7.9.0 ('Birds') 64bit
    Writing library : libebml v1.3.1 + libmatroska v1.4.2
    Attachment : Yes

    Video
    ID : 1
    Format : AVC
    Format/Info : Advanced Video Codec
    Format profile : High@L4.1
    Format settings, CABAC : Yes
    Format settings, ReFrames : 12 frames
    Codec ID : V_MPEG4/ISO/AVC
    Duration : 1h 44mn
    Bit rate : 7 919 Kbps
    Width : 1 280 pixels
    Height : 534 pixels
    Display aspect ratio : 2.40:1
    Frame rate : 23.976 fps
    Color space : YUV
    Chroma subsampling : 4:2:0
    Bit depth : 8 bits
    Scan type : Progressive
    Bits/(Pixel*Frame) : 0.483
    Stream size : 5.78 GiB (87%)
    Writing library : x264 core 148 r2579+50 65f745f t_mod_Custom [8-bit@all X86_64]
    Encoding settings : cabac=1 / ref=12 / deblock=1:-3:-3 / analyse=0x3:0x133 / me=umh / subme=10 / psy=1 / fade_compensate=0.00 / psy_rd=1.05:0.00 / mixed_ref=1 / me_range=48 / chroma_me=1 / trellis=2 / 8x8dct=1 / cqm=0 / deadzone=21,11 / fast_pskip=1 / chroma_qp_offset=-2 / threads=8 / lookahead_threads=1 / sliced_threads=0 / nr=0 / decimate=1 / interlaced=0 / bluray_compat=0 / constrained_intra=0 / fgo=0 / bframes=9 / b_pyramid=2 / b_adapt=2 / b_bias=0 / direct=3 / weightb=1 / open_gop=0 / weightp=2 / keyint=250 / keyint_min=23 / scenecut=40 / intra_refresh=0 / rc_lookahead=150 / rc=crf / mbtree=0 / crf=16.1000 / qcomp=0.60 / qpmin=0:0:0 / qpmax=69:69:69 / qpstep=4 / vbv_maxrate=50000 / vbv_bufsize=62500 / crf_max=0.0 / nal_hrd=none / filler=0 / ip_ratio=1.28 / pb_ratio=1.18 / aq=1:0.65 / aq-sensitivity=10.00 / aq-factor=1.00:1.00:1.00 / aq2=0 / aq3=0
    Language : English
    Default : Yes
    Forced : No

    Audio #1
    ID : 2
    Format : AC-3
    Format/Info : Audio Coding 3
    Mode extension : CM (complete main)
    Codec ID : A_AC3
    Duration : 1h 44mn
    Bit rate mode : Constant
    Bit rate : 384 Kbps
    Channel(s) : 6 channels
    Channel positions : Front: L C R, Side: L R, LFE
    Sampling rate : 48.0 KHz
    Bit depth : 16 bits
    Compression mode : Lossy
    Stream size : 287 MiB (4%)
    Language : Russian
    Default : No
    Forced : No

    Audio #2
    ID : 3
    Format : AC-3
    Format/Info : Audio Coding 3
    Mode extension : CM (complete main)
    Codec ID : A_AC3
    Duration : 1h 44mn
    Bit rate mode : Constant
    Bit rate : 640 Kbps
    Channel(s) : 6 channels
    Channel positions : Front: L C R, Side: L R, LFE
    Sampling rate : 48.0 KHz
    Bit depth : 16 bits
    Compression mode : Lossy
    Stream size : 478 MiB (7%)
    Language : English
    Default : Yes
    Forced : No

    Text #1
    ID : 4
    Format : UTF-8
    Codec ID : S_TEXT/UTF8
    Codec ID/Info : UTF-8 Plain Text
    Language : English
    Default : No
    Forced : No

    Text #2
    ID : 5
    Format : UTF-8
    Codec ID : S_TEXT/UTF8
    Codec ID/Info : UTF-8 Plain Text
    Title : SDH
    Language : English
    Default : No
    Forced : No

    Text #3
    ID : 6
    Format : UTF-8
    Codec ID : S_TEXT/UTF8
    Codec ID/Info : UTF-8 Plain Text
    Language : Spanish
    Default : No
    Forced : No

    Text #4
    ID : 7
    Format : UTF-8
    Codec ID : S_TEXT/UTF8
    Codec ID/Info : UTF-8 Plain Text
    Language : French
    Default : No
    Forced : No

    Menu
    00:00:00.000 : en:Chapter 1
    00:10:33.258 : en:Chapter 2
    00:19:34.382 : en:Chapter 3
    00:29:54.167 : en:Chapter 4
    00:40:42.023 : en:Chapter 5
    00:50:23.145 : en:Chapter 6
    01:00:27.082 : en:Chapter 7
    01:09:51.062 : en:Chapter 8
    01:20:17.396 : en:Chapter 9
    01:30:42.228 : en:Chapter 10
    01:37:08.322 : en:Chapter 11
    Скриншоты:


    © Оформление by Ворон
    pb.wtf



  • Скачать Антураж через торрент http://pic.kartinco.top/images/6/ordi9.jpg Скачать фильм Антураж через торрент бесплантно в хорошем качестве Описание: Звезда кино Винс Чейз и его друзья бросают вызов капризному и зачастую жестокому миру Голливуда. Мировая премьера:27 мая 2015 ... 10 10 2
    Торрент: Зарегистрирован [2015-09-25 16:32] · скачан: 268 раз
    Статус: √ проверено
    Размер: 6.66 GB
    Как cкачать? Как скачать Антураж через торрент | qTorrent

    % Раздел Тема Автор DL S | L
    Фильмы [HD 720p, 1080p] (Хороший звук DUB, MVO) [ 14.88 GB ] Антураж / Entourage [2015 BDRip 1080p ] Ворон Скачать
    1 | 0
    Фильмы 2015 [DVDrip, WEB-DLRip, HDrip] [ 2.06 GB ] Антураж / Entourage [2015 HDRip - / ] 10oN Скачать
    1 | 0

    28-11-2019 20:33  

    Отключить всю рекламу на сайте

      Дорогой пользователь! Огромная просьба, поблагодарите релизера, оцените раздачу и оставьте свои комментарий, если Вы скачали Антураж через торрент бесплатно! Внесите свою лепту в развитие PiratBit!
      Комментировать посты могут только пользователи прошедшие не сложную регистрацию
      Показать сообщения:    

      Антураж через торрент
      Скачать бесплатно Антураж
      Антураж скачать торрент
      Антураж смотреть онлайн
      Cкачать фильм Антураж бесплатно
      Антураж скачать торрент в хорошем качестве
      Антураж смотреть онлайн бесплатно в хорошем качестве


      Вы не можете начинать темы
      Вы не можете отвечать на сообщения
      Вы не можете редактировать свои сообщения
      Вы не можете удалять свои сообщения
      Вы не можете голосовать в опросах
      Вы не можете прикреплять файлы к сообщениям
      Вы можете скачивать файлы