Ссылка на приватное зеркало нашего сайта всего за 1$. Внимание количество ограничено!!!

2 сезон

iTunes

1 сезон

1

2 сезон

2 сезон

iTunes

1 сезон

RePack

30

Ultimate

ВАЖНО

ИГРА 18+

pack

RePack

MK11
pack

Забери бонус

RePack

jed

!!Акция!!

Alien_Rage

RePack

fifa19

RePack

Assassins Creed: Odyssey

RePack

NEED FOR SPEED™ PAYBACK

4 сезон

9 сезон

Бесстыжие 9 сезон

Все сериалы

все сериалы на PB.wtf

RePack

FAR CRY 5
  

Игрок / The Player/ Сезон: 1 / Серии 1-9 из 9 (Бхарат Наллури / Bharat Nalluri) [2015, США, триллер, драма, WEB-DLRip-AVC, MVO] [NewStudio] pb.wtf

Игрок через торрент pb.wtf

Размер: 8.39 GB | Добавлен: 5 лет назад | Торрент скачан:49 раз
Скачать  

26-09-2015 03:27 Игрок Скачать торрент  

Игрок / The Player
«Никогда не ставьте против него»


  • Год выпуска: 2015
  • Страна: США
  • Жанр: триллер, драма
  • Продолжительность: 00:42:52 (Серия)
  • Перевод: Профессиональный многоголосый закадровый [NewStudio]

  • Режиссер: Бхарат Наллури / Bharat Nalluri
  • В ролях:

    Уэсли Снайпс (Johnson), Филип Уинчестер (Alex), Чарити Уэйкфилд (Cassandra), Дэймон Гаптон (Cal Brown), Jade Bender (Shada Raquib), Тони Френч (Driver), Dion Mucciacito (Tomas Edribali), Пануват Энтони Нанакорнпаном (Bud), Фил Тайлер (Wilkes), Нитя Видьясагар (Medina Raqib), Карло Рота (Daoud Raqiv (2015)), Исайя Адамс (Victor)

  • Описание:
    В центре повествования находится опытный спецагент, который на протяжении долгого времени работал в престижном разведывательном ведомстве. Беспрерывные задания, переполненные приключениями и опасностями, сделали из него настоящего мастера этого дела. Раз за разом раскрывая самые запутанные преступления, даже при отсутствии малейших зацепок, он смог стать одним из лучших и заработать себе впечатляющую репутацию. Однако, человек не всегда способен совладать с историей своей жизни и держать её в определённом русле. Главного героя вынудили расстаться со своим любимым делом и покончить с прошлой карьерой раз и навсегда. Череда ужасающих событий переворачивает его привычный мир с ног на голову и отнимает у него самое дорогое. Потеряв жену, бывший разведчик находит себе новое призвание, ещё более опасное. Теперь он становится экспертом по вопросам безопасности и заводит знакомства с влиятельными людьми. По мере выполнения своей работы, он жаждет раскрыть преступление, которое разрушило его жизнь...
  • Рейтинг:



  • Качество: WEB-DLRip-AVC
  • Формат: :MPEG-4
  • Видео кодек: AVC
  • Аудио кодек: AC3
  • Видео: 2361 Кбит/сек (2500 Кбит/сек), 1024*576 (16:9), в 23,976 кадра/сек, AVC
  • Аудио №1: русский 384 Кбит/сек, 48,0 КГц, 16 бит, 6 каналов, AC-3 |[NewStudio]|
  • Аудио №2: английский 384 Кбит/сек, 48,0 КГц, 16 бит, 6 каналов, AC-3
  • Релиз от: GEKADOL

    Код:

    Внимание! Раздача ведётся путём добавления новых серий; при каждом добавлении создаётся новый торрент. Чтобы начать докачку новой серии, пользователям необходимо сделать следующее:
    (1) остановить скачивание,
    (2) удалить старый торрент у себя из клиента (старые серии удалять не надо),
    (3) скачать новый торрент и запустить его у себя в клиенте вместо старого, при этом указать клиенту путь в старую папку куда и должно происходить скачивание новых серий.
    Ваш клиент при этом должен произвести хеширование (проверку) старой папки (если не производит сам - помогите ему сделать это), и будет докачивать только те серии которых у вас ещё нет. Старые серии при этом не удаляются, а продолжают раздаваться!
    Eсли вы уже удалили старые серии, то предотвратить повторную закачку старых серий можно, отжав галочку в соответствующих местах при запуске нового торрента. По возможности, желательно не удалять старые серии как можно дольше чтобы релизёр не столько продолжал раздавать старые серии, а смог сконцентрироваться на новых.


    Код:

    Общее
    Полное имя                               : H:\Игрок (Сезон 1)\The.Player.s01e01.WEB-DLRip-AVC.NewStudio.TV.mp4
    Формат                                   : MPEG-4
    Профиль формата                          : Base Media
    Идентификатор кодека                     : isom
    Размер файла                             : 961 Мбайт
    Продолжительность                        : 42 м.
    Общий поток                              : 3134 Кбит/сек
    Программа кодирования                    : XviD4PSP 7.0.163
    encoding_info                            : MATROSKA / WEBM > MP4 / H264 > X264 CBR 2500kbps HQ1 / AC3 > AC3 CBR 384kbps / AC3 > AC3 CBR 384kbps

    Видео
    Идентификатор                            : 1
    Формат                                   : AVC
    Формат/Информация                        : Advanced Video Codec
    Профиль формата                          : High@L3.1
    Параметр CABAC формата                   : Да
    Параметр ReFrames формата                : 4 кадра
    Идентификатор кодека                     : avc1
    Идентификатор кодека/Информация          : Advanced Video Coding
    Продолжительность                        : 42 м.
    Битрейт                                  : 2361 Кбит/сек
    Номинальный битрейт                      : 2500 Кбит/сек
    Ширина                                   : 1024 пикселя
    Высота                                   : 576 пикселей
    Соотношение сторон                       : 16:9
    Режим частоты кадров                     : Постоянный
    Частота кадров                           : 23,976 кадра/сек
    Цветовое пространство                    : YUV
    Субдискретизация насыщенности            : 4:2:0
    Битовая глубина                          : 8 бит
    Тип развёртки                            : Прогрессивная
    Бит/(Пиксели*Кадры)                      : 0.167
    Размер потока                            : 724 Мбайт (75%)
    Библиотека кодирования                   : x264 core 148 r2579M 73ae2d1
    Настройки программы                      : cabac=1 / ref=3 / deblock=1:-1:-1 / analyse=0x3:0x133 / me=hex / subme=7 / psy=1 / psy_rd=1,00:0,20 / mixed_ref=1 / me_range=16 / chroma_me=1 / trellis=1 / 8x8dct=1 / cqm=0 / deadzone=21,11 / fast_pskip=1 / chroma_qp_offset=-3 / threads=6 / lookahead_threads=1 / sliced_threads=0 / nr=0 / decimate=1 / interlaced=0 / bluray_compat=0 / constrained_intra=0 / bframes=3 / b_pyramid=2 / b_adapt=2 / b_bias=0 / direct=3 / weightb=1 / open_gop=0 / weightp=2 / keyint=230 / keyint_min=23 / scenecut=40 / intra_refresh=0 / rc_lookahead=40 / rc=cbr / mbtree=1 / bitrate=2500 / ratetol=1,0 / qcomp=0,60 / qpmin=0 / qpmax=69 / qpstep=4 / vbv_maxrate=2500 / vbv_bufsize=2500 / nal_hrd=none / filler=0 / ip_ratio=1,40 / aq=1:1,00
    Язык                                     : English
    Цветовой диапазон                        : Limited
    Основные цвета                           : BT.709
    Характеристики трансфера                 : BT.709
    Коэффициенты матрицы                     : BT.709

    Аудио #1
    Идентификатор                            : 2
    Формат                                   : AC-3
    Формат/Информация                        : Audio Coding 3
    Расширение режима                        : CM (complete main)
    Параметр Endianness формата              : Big
    Идентификатор кодека                     : ac-3
    Продолжительность                        : 42 м.
    Вид битрейта                             : Постоянный
    Битрейт                                  : 384 Кбит/сек
    Каналы                                   : 6 каналов
    Расположение каналов                     : Front: L C R, Side: L R, LFE
    Частота                                  : 48,0 КГц
    Битовая глубина                          : 16 бит
    Метод сжатия                             : С потерями
    Размер потока                            : 118 Мбайт (12%)
    Заголовок                                : NewStudio.TV / NewStudio.TV
    Язык                                     : Russian

    Аудио #2
    Идентификатор                            : 3
    Формат                                   : AC-3
    Формат/Информация                        : Audio Coding 3
    Расширение режима                        : CM (complete main)
    Параметр Endianness формата              : Big
    Идентификатор кодека                     : ac-3
    Продолжительность                        : 42 м.
    Вид битрейта                             : Постоянный
    Битрейт                                  : 384 Кбит/сек
    Каналы                                   : 6 каналов
    Расположение каналов                     : Front: L C R, Side: L R, LFE
    Частота                                  : 48,0 КГц
    Битовая глубина                          : 16 бит
    Метод сжатия                             : С потерями
    Размер потока                            : 118 Мбайт (12%)
    Язык                                     : English




    Скриншоты:
    скриншот   скриншот   скриншот   скриншот   скриншот  
    скриншот  

    Раздача ведётся путём добавления новых серий. Добавлена 9 серия (23.11.2015).Просьба перекачать торрент файл.

    pb.wtf



  • Скачать Игрок через торрент http://i72.fastpic.ru/big/2015/0926/de/1a70b20d2d6d57aedbeeccef3343b0de.jpeg Скачать фильм Игрок через торрент бесплантно в хорошем качестве Описание: В центре повествования находится опытный спецагент, который на протяжении долгого времени работал в престижном разведывательном ... 8.7 10 15
    Торрент: Зарегистрирован [2015-11-23 01:44] · скачан: 49 раз
    Статус: √ проверено
    Размер: 8.39 GB
    Как cкачать? Как скачать Игрок через торрент | qTorrent

    % Раздел Тема Автор DL S | L
    Зарубежные сериалы [ 8.42 GB ] Игрок / The Player/ Сезон: 1 / Серии 1-9 из 9 [2015 WEB-DLRip-AVC MVO] [BaibaKo] GEKADOL Скачать
    1 | 0

    28-11-2019 20:33  

    Отключить всю рекламу на сайте

      Дорогой пользователь! Огромная просьба, поблагодарите релизера, оцените раздачу и оставьте свои комментарий, если Вы скачали Игрок через торрент бесплатно! Внесите свою лепту в развитие PiratBit!
      Комментировать посты могут только пользователи прошедшие не сложную регистрацию
      Показать сообщения:    

      Игрок через торрент
      Скачать бесплатно Игрок
      Игрок скачать торрент
      Игрок смотреть онлайн
      Cкачать фильм Игрок бесплатно
      Игрок скачать торрент в хорошем качестве
      Игрок смотреть онлайн бесплатно в хорошем качестве


      Вы не можете начинать темы
      Вы не можете отвечать на сообщения
      Вы не можете редактировать свои сообщения
      Вы не можете удалять свои сообщения
      Вы не можете голосовать в опросах
      Вы не можете прикреплять файлы к сообщениям
      Вы можете скачивать файлы