Ссылка на приватное зеркало нашего сайта всего за 1$. Внимание количество ограничено!!!

2 сезон

iTunes

1 сезон

1

2 сезон

2 сезон

iTunes

1 сезон

RePack

30

Ultimate

ВАЖНО

ИГРА 18+

pack

RePack

MK11
pack

Забери бонус

RePack

jed

!!Акция!!

Alien_Rage

RePack

fifa19

RePack

Assassins Creed: Odyssey

RePack

NEED FOR SPEED™ PAYBACK

4 сезон

9 сезон

Бесстыжие 9 сезон

Все сериалы

все сериалы на PB.wtf

RePack

FAR CRY 5
  

Роузвуд / Rosewood / Сезон: 1 / Серии 1-22 из 22 (Ричард Шепард / Richard Shepard, Сара Пиа Андерсон / Sarah Pia Anderson, Эрик Ланёвилль / Eric Laneuville) [2015, США, драма, WEB-DLRip-AVC, MVO] [NewStudio] pb.wtf

Роузвуд через торрент pb.wtf

Размер: 19.9 GB | Добавлен: 4 года 1 мес. назад | Торрент скачан:39 раз
Скачать  

26-09-2015 04:01 Роузвуд Скачать торрент  


Роузвуд / Rosewood

«Жизнь. Смерть. Майами»


  • Год выпуска: 2015
  • Страна: США
  • Жанр: драма
  • Продолжительность: 00:44:53 (Серия)
  • Перевод: Профессиональный многоголосый закадровый [NewStudio]

  • Режиссер: Ричард Шепард / Richard Shepard, Сара Пиа Андерсон / Sarah Pia Anderson, Эрик Ланёвилль / Eric Laneuville
  • В ролях:

    Моррис Честнат (Dr. Beaumont Rosewood, Jr.), Габриэль Деннис (Pippy Rosewood), Джессика Ортиз (Detective Annalise Villa), Лоррейн Туссен (Donna Rosewood), Анна Конкл (Kathy Fern Clyde), Майкл Эндрю Бэйкер (Young Father), Кристиан Диас (Man in Bar), Малили Диб (Family Member), Ryan W. Garcia (IAD Agent Malcute), Стэйси Холл (Security Gaurd), Кеисуке Хоаси (Dr. Wei), Лукас С. Локвуд (VIP Party Guest)

  • Описание:
    История о патологоанатоме из Майами, докторе Роузвуде. Он проводит вскрытия в своей передовой лаборатории, чтобы обнаружить улики, невидимые для департамента полиции.
  • Рейтинг:



  • Качество: WEB-DLRip-AVC
  • Формат: :MPEG-4
  • Видео кодек: AVC
  • Аудио кодек: AC3
  • Видео: 2369 Кбит/сек (2500 Кбит/сек), 1024*576 (16:9), в 23,976 кадра/сек, AVC
  • Аудио №1: русский 384 Кбит/сек, 48,0 КГц, 16 бит, 6 каналов, AC-3 |[NewStudio]|
  • Аудио №2: английский 384 Кбит/сек, 48,0 КГц, 16 бит, 6 каналов, AC-3
  • Релиз от: GEKADOL

    Внимание! Раздача ведётся путём добавления новых серий; при каждом добавлении создаётся новый торрент. Чтобы начать докачку новой серии, пользователям необходимо сделать следующее:
    (1) остановить скачивание,
    (2) удалить старый торрент у себя из клиента (старые серии удалять не надо),
    (3) скачать новый торрент и запустить его у себя в клиенте вместо старого, при этом указать клиенту путь в старую папку куда и должно происходить скачивание новых серий.
    Ваш клиент при этом должен произвести хеширование (проверку) старой папки (если не производит сам - помогите ему сделать это), и будет докачивать только те серии которых у вас ещё нет. Старые серии при этом не удаляются, а продолжают раздаваться!
    Eсли вы уже удалили старые серии, то предотвратить повторную закачку старых серий можно, отжав галочку в соответствующих местах при запуске нового торрента. По возможности, желательно не удалять старые серии как можно дольше чтобы релизёр не столько продолжал раздавать старые серии, а смог сконцентрироваться на новых.

    Общее
    Полное имя : H:\Роузвуд (Сезон 1)\Rosewood.s01e01.WEB-DLRip-AVC.NewStudio.TV.mp4
    Формат : MPEG-4
    Профиль формата : Base Media
    Идентификатор кодека : isom
    Размер файла : 1009 Мбайт
    Продолжительность : 44 м.
    Общий поток : 3142 Кбит/сек
    Программа кодирования : XviD4PSP 7.0.163
    encoding_info : MATROSKA / WEBM > MP4 / H264 > X264 CBR 2500kbps HQ1 / AC3 > AC3 CBR 384kbps / AC3 > AC3 CBR 384kbps

    Видео
    Идентификатор : 1
    Формат : AVC
    Формат/Информация : Advanced Video Codec
    Профиль формата : High@L3.1
    Параметр CABAC формата : Да
    Параметр ReFrames формата : 4 кадра
    Идентификатор кодека : avc1
    Идентификатор кодека/Информация : Advanced Video Coding
    Продолжительность : 44 м.
    Битрейт : 2369 Кбит/сек
    Номинальный битрейт : 2500 Кбит/сек
    Ширина : 1024 пикселя
    Высота : 576 пикселей
    Соотношение сторон : 16:9
    Режим частоты кадров : Постоянный
    Частота кадров : 23,976 кадра/сек
    Цветовое пространство : YUV
    Субдискретизация насыщенности : 4:2:0
    Битовая глубина : 8 бит
    Тип развёртки : Прогрессивная
    Бит/(Пиксели*Кадры) : 0.168
    Размер потока : 761 Мбайт (75%)
    Библиотека кодирования : x264 core 148 r2579M 73ae2d1
    Настройки программы : cabac=1 / ref=3 / deblock=1:-1:-1 / analyse=0x3:0x133 / me=hex / subme=7 / psy=1 / psy_rd=1,00:0,20 / mixed_ref=1 / me_range=16 / chroma_me=1 / trellis=1 / 8x8dct=1 / cqm=0 / deadzone=21,11 / fast_pskip=1 / chroma_qp_offset=-3 / threads=6 / lookahead_threads=1 / sliced_threads=0 / nr=0 / decimate=1 / interlaced=0 / bluray_compat=0 / constrained_intra=0 / bframes=3 / b_pyramid=2 / b_adapt=2 / b_bias=0 / direct=3 / weightb=1 / open_gop=0 / weightp=2 / keyint=230 / keyint_min=23 / scenecut=40 / intra_refresh=0 / rc_lookahead=40 / rc=cbr / mbtree=1 / bitrate=2500 / ratetol=1,0 / qcomp=0,60 / qpmin=0 / qpmax=69 / qpstep=4 / vbv_maxrate=2500 / vbv_bufsize=2500 / nal_hrd=none / filler=0 / ip_ratio=1,40 / aq=1:1,00
    Язык : English
    Цветовой диапазон : Limited
    Основные цвета : BT.709
    Характеристики трансфера : BT.709
    Коэффициенты матрицы : BT.709

    Аудио #1
    Идентификатор : 2
    Формат : AC-3
    Формат/Информация : Audio Coding 3
    Расширение режима : CM (complete main)
    Параметр Endianness формата : Big
    Идентификатор кодека : ac-3
    Продолжительность : 44 м.
    Вид битрейта : Постоянный
    Битрейт : 384 Кбит/сек
    Каналы : 6 каналов
    Расположение каналов : Front: L C R, Side: L R, LFE
    Частота : 48,0 КГц
    Битовая глубина : 16 бит
    Метод сжатия : С потерями
    Размер потока : 123 Мбайт (12%)
    Заголовок : NewStudio.TV / NewStudio.TV
    Язык : Russian

    Аудио #2
    Идентификатор : 3
    Формат : AC-3
    Формат/Информация : Audio Coding 3
    Расширение режима : CM (complete main)
    Параметр Endianness формата : Big
    Идентификатор кодека : ac-3
    Продолжительность : 44 м.
    Вид битрейта : Постоянный
    Битрейт : 384 Кбит/сек
    Каналы : 6 каналов
    Расположение каналов : Front: L C R, Side: L R, LFE
    Частота : 48,0 КГц
    Битовая глубина : 16 бит
    Метод сжатия : С потерями
    Размер потока : 123 Мбайт (12%)
    Язык : English



    Скриншоты:
    скриншот   скриншот   скриншот   скриншот   скриншот   скриншот   скриншот  
    скриншот  

    Раздача ведётся путём добавления новых серий. Добавлена 22 серия (22.05.2016).Просьба перекачать торрент файл.

    pb.wtf



  • Скачать Роузвуд через торрент http://pic1.kartinco.top/images/10/2hnk8.jpg Скачать фильм Роузвуд через торрент бесплантно в хорошем качестве Описание: История о патологоанатоме из Майами, докторе Роузвуде. Он проводит вскрытия в своей передовой лаборатории, чтобы обнаружить ... 7.6 10 18
    Info! Золотая раздача, скачанное не засчитывается.
    Торрент: Зарегистрирован [2016-09-27 13:06] · скачан: 39 раз
    Статус: √ проверено
    Размер: 19.9 GB
    Как cкачать? Как скачать Роузвуд через торрент | qTorrent

    % Раздел Тема Автор DL S | L
    Зарубежные сериалы [ 18.21 GB ] Роузвуд / Rosewood / Сезон: 2 / Серии 1-22 из 22 [2016 WEB-DLRip-AVC] MVO [NewStudio] GEKADOL Скачать
    1 | 0


    Последний раз редактировалось: GEKADOL (2016-09-27 13:06), всего редактировалось 24 раз(а)

    28-11-2019 20:33  

    Отключить всю рекламу на сайте

    26-09-2015 06:22 Роузвуд Скачать торрент  

    Класс! Давненько жду этот сериал) Спасибо за раздачу!!! pb.wtf



    26-09-2015 07:15 Роузвуд Скачать торрент  

    TemoXa писал(а):

    Класс! Давненько жду этот сериал) Спасибо за раздачу!!!

    Вам спасибо за спасибо) pb.wtf



    03-10-2015 09:42 Роузвуд Скачать торрент  

    Спасибо, заценим.pb.wtf



    09-10-2015 13:11 Роузвуд Скачать торрент  

    Майями..патологоанатом..что то уже было)pb.wtf



    09-01-2016 23:53 Роузвуд Скачать торрент  

    когда будет следующие серии???pb.wtf



    10-03-2016 12:49 Роузвуд Скачать торрент  

    Кузнец писал(а):

    когда будет следующие серии???

    Поехали дальше! pb.wtf



    20-03-2016 18:44 Роузвуд Скачать торрент  

    новый доктор хаус pb.wtf



    21-03-2016 05:44 Роузвуд Скачать торрент  

    это новая версия сериала вечностьpb.wtf



    09-04-2016 18:38 Роузвуд Скачать торрент  

    Декстер стал черным? О_Оpb.wtf



      Дорогой пользователь! Огромная просьба, поблагодарите релизера, оцените раздачу и оставьте свои комментарий, если Вы скачали Роузвуд через торрент бесплатно! Внесите свою лепту в развитие PiratBit!
      Комментировать посты могут только пользователи прошедшие не сложную регистрацию
      Показать сообщения:    

      Роузвуд через торрент
      Скачать бесплатно Роузвуд
      Роузвуд скачать торрент
      Роузвуд смотреть онлайн
      Cкачать фильм Роузвуд бесплатно
      Роузвуд скачать торрент в хорошем качестве
      Роузвуд смотреть онлайн бесплатно в хорошем качестве


      Вы не можете начинать темы
      Вы не можете отвечать на сообщения
      Вы не можете редактировать свои сообщения
      Вы не можете удалять свои сообщения
      Вы не можете голосовать в опросах
      Вы не можете прикреплять файлы к сообщениям
      Вы можете скачивать файлы