1 сезон

3 сезон

iTunes

1

iTunes

MVO

iTunes

13

1 сезон

RePack

30

Deluxe

pack

Лицензия

ВАЖНО

ИГРА 18+

pack

RePack

MK11

RePack

jed

RePack

fifa19

RePack

RDR2

RePack

NEED FOR SPEED™ PAYBACK

4 сезон

9 сезон

Бесстыжие 9 сезон

Все сериалы

все сериалы на PB.wtf

RePack

FAR CRY 5

Anonymous, добрый день, мы катастрофически не успеваем собрать деньги на оплату серверов, помогите нам пожалуйста 5,10,15р., для нас важна любая помощь . В качестве благодарности мы отключим Вам всю рекламу на сайте (укажите свой ник в строку Ваше имя)!

×
  
Magnet ссылка

Ты не ты / You're Not You (Джордж С. Волф / George C. Wolfe) [2014, драма, DVD9] R5 pb.wtf

Ты не ты через торрент pb.wtf

Размер: 4.84 GB | Добавлен: 5 лет 9 мес. назад | Торрент скачан:16 раз
Скачать  

26-09-2015 10:09 Ты не ты Скачать торрент  


Ты не ты / You're Not You
«Life is measured in moments that leave you breathless»
Страна: США
Студия: 2S Films, Daryl Prince Productions, DiNovi Pictures
Жанр: драма
Год выпуска: 2014
Мировая премьера: 27 сентября 2014
Дата выхода DVD: 3 сентября 2015
Продолжительность: 01:38:15
Перевод: Профессиональный (многоголосый закадровый) [Лицензия]
Cубтитры: нет
Оригинальная аудиодорожка: нет
Режиссер: Джордж С. Волф / George C. Wolfe
В ролях: Хилари Суэнк, Эмми Россум, Джош Дюамель, Стефани Беатриз, Джейсон Риттер, Джулиан МакМэхон, Эли Лартер, Андреа Сэвадж, Джералд Дауни, Майк Дойл
Описание: Драма сосредоточена на неизлечимо больной женщине и беспечной молодой девушке, которая становится её опекуном.
Бонусы: нет

Релиз группы:
Качество: DVD9 R5
Формат: DVD-Video
Видео кодек: MPEG2
Аудио кодек: AC3
Видео: PAL 16:9 (720x576(0.570)) MPEG Video, 25,000 кадр/сек, 6416 Кбит/сек
Аудио: Russian (Dolby AC3, 2 ch) 256 Кбит/сек, 48,0 КГц



Title:
Size: 4.84 Gb ( 5 070 938 KBytes ) - DVD-9
Enabled regions: 1, 2, 3, 4, 5, 6, 7, 8

VTS_01 :
Play Length: 00:00:25
Video: PAL 16:9 (720x576) VBR, Auto Pan&Scan, Auto Letterboxed
Audio:
Russian (Dolby AC3, 6 ch)
English (Dolby AC3, 6 ch)
English (Dolby AC3, 6 ch)

VTS_02 :
Play Length: 01:38:15
Video: PAL 16:9 (720x576) VBR, Auto Pan&Scan, Auto Letterboxed
Audio:
Russian (Dolby AC3, 2 ch)

Menu Video:
PAL 16:9 (720x576) VBR
Auto Pan&Scan, Auto Letterboxed
Menu Subtitles:
Not specified
Menu English Language Unit :
Root Menu
Chapter (PTT) Menu
Общее
Полное имя : H:\Новинки 2015\Ty.ne.ty.2014.DVD9\VIDEO_TS\VTS_02_1.VOB
Формат : MPEG-PS
Размер файла : 1024 Мбайт
Продолжительность : 21 м.
Режим общего битрейта : Переменный
Общий поток : 6808 Кбит/сек

Видео
Идентификатор : 224 (0xE0)
Формат : MPEG Video
Версия формата : Version 2
Профиль формата : Main@Main
Параметр BVOP формата : Да
Параметр матрицы формата : Выборочная
Параметр GOP формата : Variable
Продолжительность : 21 м.
Вид битрейта : Переменный
Битрейт : 6416 Кбит/сек
Максимальный битрейт : 8500 Кбит/сек
Ширина : 720 пикселей
Высота : 576 пикселей
Соотношение сторон : 16:9
Частота кадров : 25,000 кадров/сек
Стандарт вещания : PAL
Цветовое пространство : YUV
Субдискретизация насыщенности : 4:2:0
Битовая глубина : 8 бит
Тип развёртки : Прогрессивная
Метод сжатия : С потерями
Бит/(Пиксели*Кадры) : 0.619
Временной код первого кадра : 00:59:59:24
Оригинал временного кода : Group of pictures header
GOP, открыто/закрыто : Открыто
GOP, открыто/закрыто на первом кадре : Закрыто
Размер потока : 965 Мбайт (94%)

Аудио
Идентификатор : 189 (0xBD)-128 (0x80)
Формат : AC-3
Формат/Информация : Audio Coding 3
Расширение режима : CM (complete main)
Параметр Endianness формата : Big
Режим смешивания : DVD-Video
Продолжительность : 21 м.
Вид битрейта : Постоянный
Битрейт : 256 Кбит/сек
Каналы : 2 канала
Расположение каналов : Front: L R
Частота : 48,0 КГц
Метод сжатия : С потерями
Размер потока : 38,5 Мбайт (4%)










pb.wtf



Скачать Ты не ты через торрент http://i70.fastpic.ru/big/2015/0926/e1/8efb253fd692a2d6b377d07d3de81be1.jpg Скачать фильм Ты не ты через торрент бесплантно в хорошем качестве Описание: Драма сосредоточена на неизлечимо больной женщине и беспечной молодой девушке, которая становится её опекуном.Бонусы: нет ... 10 10 3
Info! Золотая раздача, скачанное не засчитывается.
Торрент: Зарегистрирован [2015-09-26 10:09] · скачан: 16 раз
Статус: √ проверено
Размер: 4.84 GB
Как cкачать? Как скачать Ты не ты через торрент | UTorrent

28-11-2019 20:33  

Отключить всю рекламу на сайте

    Дорогой пользователь! Огромная просьба, поблагодарите релизера, оцените раздачу и оставьте свои комментарий, если Вы скачали Ты не ты через торрент бесплатно! Внесите свою лепту в развитие PiratBit!
    Комментировать посты могут только пользователи прошедшие не сложную регистрацию
    Показать сообщения:    

    Ты не ты через торрент
    Скачать бесплатно Ты не ты
    Ты не ты скачать торрент
    Ты не ты смотреть онлайн
    Cкачать фильм Ты не ты бесплатно
    Ты не ты скачать торрент в хорошем качестве
    Ты не ты смотреть онлайн бесплатно в хорошем качестве


    Вы не можете начинать темы
    Вы не можете отвечать на сообщения
    Вы не можете редактировать свои сообщения
    Вы не можете удалять свои сообщения
    Вы не можете голосовать в опросах
    Вы не можете прикреплять файлы к сообщениям
    Вы можете скачивать файлы