новый адрес
Ссылка на приватное зеркало всего за 1$. Внимание количество ограничено!!!

iTunes

1+1

iTunes

мы

WEB-DL

1

iTunes

Чернобыль

iTunes

Ральф против интернета

Лицензия

ПШазам

Лицензия

Оно 2

Лицензия

30
pack

Вам бонус

ВАЖНО

!!Акция!!

Alien_RageХит недели

RePack

Resident Evil 21

ИГРА 18+

pack

RePack

jed

!!Акция!!

Alien_Rage

RePack

fifa19

RePack

Assassins Creed: Odyssey

RePack

NEED FOR SPEED™ PAYBACK

3 сезон

9 сезон

Бесстыжие 9 сезон

Все сериалы

все сериалы на PB.wtf

RePack

FAR CRY 5
Ребята, катастрофически не хватает 1900р. для оплаты серверов за Октябрь (всвязи с блокировками трафик упал в 3 раза), 1-2р., выручайте.
  

Мальчик с велосипедом / Le Gamin au vйlo (Жан-Пьер Дарденн, Люк Дарденн) [2011 г., драма, HDRip, MVO [ лицензия ] + Оригинал] pb.wtf

Мальчик с велосипедом через торрент pb.wtf

Размер: 1.37 GB | Добавлен: 7 лет 6 мес. назад | Торрент скачан:38 раз
Скачать  

19-05-2012 09:10 Мальчик с велосипедом Скачать торрент  

Мальчик с велосипедом / Le Gamin au vйlo

Год выпуска: 2011
Страна: Франция
Жанр: драма
Продолжительность: 01:27:20
Перевод: Профессиональный (многоголосый, закадровый) [лицензия] +Оригинал

Режиссер: Жан-Пьер Дарденн, Люк Дарденн
Продюссер: Жан-Пьер Дарденн, Люк Дарденн, Дэнис Фрейд
Сценарий: Жан-Пьер Дарденн, Люк Дарденн

детям до 13 лет просмотр не желателен
Мировой рейтинг IMDB 7.40 (5 500)


В ролях: Тома Доре, Сесиль Де Франс, Жереми Ренье, Фабрицио Ронджоне, Егон Ди Матео, Оливье Гурме, Batiste Sornin, Сэмюэл Де Рийк, Карл Жадо, Клоди Дэлфоз

Описание: История 12-летнего подростка, который хочет найти отца, оставившего его в детском доме. Совершенно случайно он знакомится с Самантой, хозяйкой парикмахерской, которая позволяет мальчику оставаться с ней на выходных.

Качество: HDRip
Формат: AVI
Видео кодек: XviD
Аудио кодек: AC3
Видео: 720x384 (1.88:1), 24.000 fps, XviD build 50 ~1776 kbps avg, 0.27 bit/pixel
Аудио#1: 48 kHz, AC3 Dolby Digital, 2/0 (L,R) ch, ~192 kbps - многоголосый, закадровый
Аудио#2: 48 kHz, AC3 Dolby Digital, 2/0 (L,R) ch, ~256 kbps - Оригинал

Общее
Полное имя : D:\Раздачи\malchik_s_velosipedom.avi
Формат : AVI
Формат/Информация : Audio Video Interleave
Размер файла : 1,37 Гбайт
Продолжительность : 1 ч. 27 м.
Общий поток : 2239 Кбит/сек
Название фильма : Malchik.s.velosipedom.2011.P.HDRip
Режиссёр : ELEKTRO-Am
Жанр : Drama
Программа кодирования : VirtualDubMod 1.5.4.1 (build 2178/release)
Формат оригинала/Имя : Movie
Правообладатель : ELEKTRI4KA

Видео
Идентификатор : 0
Формат : MPEG-4 Visual
Профиль формата : Advanced Simple@L5
Параметр BVOP формата : 2
Параметр QPel формата : Нет
Параметр GMC формата : Без точки перехода
Параметр матрицы формата : Выборочная
Идентификатор кодека : XVID
Идентификатор кодека/Подсказка : XviD
Продолжительность : 1 ч. 27 м.
Битрейт : 1777 Кбит/сек
Ширина : 720 пикс.
Высота : 384 пикс.
Соотношение сторон : 1,875
Частота кадров : 24,000 кадр/сек
Цветовое пространство : YUV
Подвыборка цветности : 4:2:0
Битовая глубина : 8 бит
Тип развёртки : Прогрессивная
Метод сжатия : С потерями
Бит/(Пиксели*Кадры) : 0.268
Размер потока : 1,08 Гбайт (79%)
Библиотека кодирования : XviD 1.2.1 (UTC 2008-12-04)

Аудио #1
Идентификатор : 1
Формат : AC-3
Формат/Информация : Audio Coding 3
Расширение режима : CM (complete main)
Идентификатор кодека : 2000
Продолжительность : 1 ч. 27 м.
Вид битрейта : Постоянный
Битрейт : 256 Кбит/сек
Каналы : 2 канала
Расположение каналов : Front: L R
Частота : 48,0 КГц
Битовая глубина : 16 бит
Метод сжатия : С потерями
Задержка видео : 9 с. 890 мс.
Размер потока : 160 Мбайт (11%)
Выравнивание : Разделение по промежуткам
Продолжительность промежутка : 42 мс. (1,00 видеокадр)
Время предзагрузки промежутка : 500 ms

Аудио #2
Идентификатор : 2
Формат : AC-3
Формат/Информация : Audio Coding 3
Расширение режима : CM (complete main)
Идентификатор кодека : 2000
Продолжительность : 1 ч. 27 м.
Вид битрейта : Постоянный
Битрейт : 192 Кбит/сек
Каналы : 2 канала
Расположение каналов : Front: L R
Частота : 48,0 КГц
Битовая глубина : 16 бит
Метод сжатия : С потерями
Задержка видео : 9 с. 890 мс.
Размер потока : 120 Мбайт (9%)
Выравнивание : Разделение по промежуткам
Продолжительность промежутка : 42 мс. (1,00 видеокадр)
Время предзагрузки промежутка : 500 ms

pb.wtf



Скачать Мальчик с велосипедом через торрент http://pic.kartinco.top/images/2000/2rrtjd78o9.png Скачать фильм Мальчик с велосипедом через торрент бесплантно в хорошем качестве Описание: История 12-летнего подростка, который хочет найти отца, оставившего его в детском доме. Совершенно случайно он знакомится ... 5 10 1
Info! Золотая раздача, скачанное не засчитывается.
Торрент: Зарегистрирован [2012-05-19 09:10] · скачан: 38 раз
Статус: √ проверено
Размер: 1.37 GB
Как cкачать? Как скачать Мальчик с велосипедом через торрент | qTorrent



Последний раз редактировалось: snouman82 (2012-05-19 10:26), всего редактировалось 2 раз(а)

28-11-2019 20:33  

Отключить всю рекламу на сайте


19-05-2012 09:43 Мальчик с велосипедом Скачать торрент  

snouman82
Этот сэмпл удали и залей новый. Надо же умудриться выбрать такой кадр, что бы на протяжении просмотра в самом конце услышать одно слово"Отдай"pb.wtf



    Дорогой пользователь! Огромная просьба, поблагодарите релизера, оцените раздачу и оставьте свои комментарий, если Вы скачали Мальчик с велосипедом через торрент бесплатно! Внесите свою лепту в развитие PiratBit!
    Комментировать посты могут только пользователи прошедшие не сложную регистрацию
    Показать сообщения:    

    Мальчик с велосипедом через торрент
    Скачать бесплатно Мальчик с велосипедом
    Мальчик с велосипедом скачать торрент
    Мальчик с велосипедом смотреть онлайн
    Cкачать фильм Мальчик с велосипедом бесплатно
    Мальчик с велосипедом скачать торрент в хорошем качестве
    Мальчик с велосипедом смотреть онлайн бесплатно в хорошем качестве


    Вы не можете начинать темы
    Вы не можете отвечать на сообщения
    Вы не можете редактировать свои сообщения
    Вы не можете удалять свои сообщения
    Вы не можете голосовать в опросах
    Вы не можете прикреплять файлы к сообщениям
    Вы можете скачивать файлы