Ссылка на приватное зеркало нашего сайта всего за 1$. Внимание количество ограничено!!!

2 сезон

iTunes

1 сезон

1

iTunes

iTunes

iTunes

1 сезон

RePack

30

ИГРА 18+

pack

ВАЖНО

!!Акция!!

Alien_RageХит недели

RePack

MK11
pack

Забери бонус

RePack

jed

!!Акция!!

Alien_Rage

RePack

fifa19

RePack

Assassins Creed: Odyssey

RePack

NEED FOR SPEED™ PAYBACK

4 сезон

9 сезон

Бесстыжие 9 сезон

Все сериалы

все сериалы на PB.wtf

RePack

FAR CRY 5
  

В случае убийства набирайте "М" / Dial M For Murder (Альфред Хичкок) [1954, триллер, криминал, BDRip 720p by msltel] MVO pb.wtf

В случае убийства набирайте "М" через торрент pb.wtf

Размер: 4.5 GB | Добавлен: 5 лет 1 мес. назад | Торрент скачан:25 раз
Скачать  

27-09-2015 13:08 В случае убийства набирайте "М" Скачать торрент  

Название: В случае убийства набирайте "М"
Оригинальное название: Dial M For Murder
Год выпуска: 1954
Страна: США
Жанр: триллер, криминал
Продолжительность: 01:45:24
Перевод: профессиональный многоголосый

Режиссёр: Альфред Хичкок

В ролях: Рэй Милланд, Грэйс Келли, Роберт Каммингс, Джон Уильямс (II), Энтони Доусон, Лео Бритт, Патрик Аллен, Джордж Ли, Джордж Олдерсон, Робин Хьюз, Ричард Бендер, Сандерс Кларк, Джек Каннингэм, Роберт Добсон, Гай Доулмен, Бесс Флауэрс, Роберт Гарвин, Майкл Хэдлоу, Сэм Харрис, Альфред Хичкок, Харольд Миллер, Мартин Милнер, Форбс Мюррэй, Бен Поллок, Тэйер Робертс

Описание: Тони Вендис, бывший плейбой и звезда большого тенниса, прожигающий деньги своей красавицы-жены Марго, решается на преступление, когда узнаёт, что может лишиться её миллионов, так как Марго увлеклась американским писателем детективных романов Марком Холлидэем. Тони придумывает план идеального убийства, находит надежного исполнителя и организует себе безупречное алиби. Он предусматривает всё, кроме необычного поведения Марго и аналитических способностей Марка...



Качество: BDRip 720p
Формат: MKV
Видео: MPEG-4 AVC, 1280x720, 23,976 кадра/с
Аудио 1: русский, AC3, 192 kbps, 2 ch, 48 kHz [профессиональный многоголосый]
Аудио 2: английский, AC3, 192 kbps, 1 ch, 48 kHz [оригинал]
Субтитры 1: русские
Субтитры 2: английские (для слабослышащих)
Британская академия, 1955 год
Номинации (1):
Лучшая иностранная актриса (Грэйс Келли)
Общее
Уникальный идентификатор : 234648956578210826772217187326651792184 (0xB087BEC4BA2D3973B70132170A9BFB38)
Полное имя : D:VideoВ случае убийства набирайте М.1954.BDRip.720p.mkv
Формат : Matroska
Версия формата : Version 4 / Version 2
Размер файла : 4,50 Гбайт
Продолжительность : 1 ч. 45 м.
Общий поток : 6117 Кбит/сек
Название фильма : BDRip -- STarankov
Дата кодирования : UTC 2015-09-27 10:52:06
Программа кодирования : mkvmerge v8.2.0 ('World of Adventure') 64bit
Библиотека кодирования : libebml v1.3.1 + libmatroska v1.4.2
DURATION : 01:44:00.275000000
NUMBER_OF_FRAMES : 1722
NUMBER_OF_BYTES : 71796
_STATISTICS_WRITING_APP : mkvmerge v8.2.0 ('World of Adventure') 64bit
_STATISTICS_WRITING_DATE_UTC : 2015-09-27 10:52:06
_STATISTICS_TAGS : BPS DURATION NUMBER_OF_FRAMES NUMBER_OF_BYTES

Видео
Идентификатор : 1
Формат : AVC
Формат/Информация : Advanced Video Codec
Профиль формата : High@L4.1
Параметр CABAC формата : Да
Параметр ReFrames формата : 9 кадров
Идентификатор кодека : V_MPEG4/ISO/AVC
Продолжительность : 1 ч. 45 м.
Битрейт : 5611 Кбит/сек
Ширина : 1280 пикселей
Высота : 720 пикселей
Соотношение сторон : 16:9
Режим частоты кадров : Постоянный
Частота кадров : 23,976 кадра/сек
Цветовое пространство : YUV
Субдискретизация насыщенности : 4:2:0
Битовая глубина : 8 бит
Тип развёртки : Прогрессивная
Бит/(Пиксели*Кадры) : 0.254
Размер потока : 4,13 Гбайт (92%)
Библиотека кодирования : x264 core 146 r2538 121396c
Настройки программы : cabac=1 / ref=9 / deblock=1:-3:-3 / analyse=0x3:0x113 / me=umh / subme=10 / psy=1 / psy_rd=1.00:0.15 / mixed_ref=1 / me_range=32 / chroma_me=1 / trellis=2 / 8x8dct=1 / cqm=0 / deadzone=21,11 / fast_pskip=1 / chroma_qp_offset=-3 / threads=6 / lookahead_threads=1 / sliced_threads=0 / nr=0 / decimate=1 / interlaced=0 / bluray_compat=0 / constrained_intra=0 / bframes=10 / b_pyramid=2 / b_adapt=2 / b_bias=0 / direct=1 / weightb=1 / open_gop=0 / weightp=2 / keyint=230 / keyint_min=23 / scenecut=40 / intra_refresh=0 / rc_lookahead=40 / rc=crf / mbtree=0 / crf=21.0 / qcomp=0.60 / qpmin=0 / qpmax=69 / qpstep=4 / vbv_maxrate=40000 / vbv_bufsize=50000 / crf_max=0.0 / nal_hrd=none / filler=0 / ip_ratio=1.40 / pb_ratio=1.30 / aq=1:1.00
Язык : English
Default : Да
Forced : Нет
DURATION : 01:45:24.318000000
NUMBER_OF_FRAMES : 151632
NUMBER_OF_BYTES : 4530243457
_STATISTICS_WRITING_APP : mkvmerge v8.2.0 ('World of Adventure') 64bit
_STATISTICS_WRITING_DATE_UTC : 2015-09-27 10:52:06
_STATISTICS_TAGS : BPS DURATION NUMBER_OF_FRAMES NUMBER_OF_BYTES

Аудио #1
Идентификатор : 2
Формат : AC-3
Формат/Информация : Audio Coding 3
Расширение режима : CM (complete main)
Параметр Endianness формата : Big
Идентификатор кодека : A_AC3
Продолжительность : 1 ч. 45 м.
Вид битрейта : Постоянный
Битрейт : 192 Кбит/сек
Каналы : 2 канала
Расположение каналов : Front: L R
Частота : 48,0 КГц
Метод сжатия : С потерями
Размер потока : 145 Мбайт (3%)
Заголовок : MVO
Язык : Russian
Default : Да
Forced : Нет

Аудио #2
Идентификатор : 3
Формат : AC-3
Формат/Информация : Audio Coding 3
Расширение режима : CM (complete main)
Параметр Endianness формата : Big
Идентификатор кодека : A_AC3
Продолжительность : 1 ч. 45 м.
Вид битрейта : Постоянный
Битрейт : 192 Кбит/сек
Каналы : 1 канал
Расположение каналов : Front: C
Частота : 48,0 КГц
Метод сжатия : С потерями
Размер потока : 145 Мбайт (3%)
Заголовок : Original
Язык : English
Default : Нет
Forced : Нет

Текст #1
Идентификатор : 4
Формат : UTF-8
Идентификатор кодека : S_TEXT/UTF8
Идентификатор кодека/Информация : UTF-8 Plain Text
Заголовок : 100 винтовок
Язык : Russian
Default : Нет
Forced : Нет

Текст #2
Идентификатор : 5
Формат : UTF-8
Идентификатор кодека : S_TEXT/UTF8
Идентификатор кодека/Информация : UTF-8 Plain Text
Заголовок : английский (для слабослышащих)
Default : Нет
Forced : Нет
pb.wtf



Скачать В случае убийства набирайте "М" через торрент http://i70.fastpic.ru/big/2015/0927/d9/31046624baa7244a961309c817a18ad9.jpg Скачать фильм В случае убийства набирайте "М" через торрент бесплантно в хорошем качестве Описание: Тони Вендис, бывший плейбой и звезда большого тенниса, прожигающий деньги своей красавицы-жены Марго, решается на преступление, ... 10 10 2
Торрент: Зарегистрирован [2015-09-27 13:08] · скачан: 25 раз
Статус: √ проверено
Размер: 4.5 GB
Как cкачать? Как скачать В случае убийства набирайте "М" через торрент | qTorrent

28-11-2019 20:33  

Отключить всю рекламу на сайте

    Дорогой пользователь! Огромная просьба, поблагодарите релизера, оцените раздачу и оставьте свои комментарий, если Вы скачали В случае убийства набирайте "М" через торрент бесплатно! Внесите свою лепту в развитие PiratBit!
    Комментировать посты могут только пользователи прошедшие не сложную регистрацию
    Показать сообщения:    

    В случае убийства набирайте "М" через торрент
    Скачать бесплатно В случае убийства набирайте "М"
    В случае убийства набирайте "М" скачать торрент
    В случае убийства набирайте "М" смотреть онлайн
    Cкачать фильм В случае убийства набирайте "М" бесплатно
    В случае убийства набирайте "М" скачать торрент в хорошем качестве
    В случае убийства набирайте "М" смотреть онлайн бесплатно в хорошем качестве


    Вы не можете начинать темы
    Вы не можете отвечать на сообщения
    Вы не можете редактировать свои сообщения
    Вы не можете удалять свои сообщения
    Вы не можете голосовать в опросах
    Вы не можете прикреплять файлы к сообщениям
    Вы можете скачивать файлы