Ссылка на приватное зеркало нашего сайта всего за 1$. Внимание количество ограничено!!!

2 сезон

iTunes

iTunes

1

iTunes

iTunes

iTunes

WEBRip

iTunes

30
pack

Вам бонус

ВАЖНО

!!Акция!!

Alien_RageХит недели

RePack

Horizon Zero Dawn

ИГРА 18+

pack

RePack

jed

!!Акция!!

Alien_Rage

RePack

fifa19

RePack

Assassins Creed: Odyssey

RePack

NEED FOR SPEED™ PAYBACK

4 сезон

9 сезон

Бесстыжие 9 сезон

Все сериалы

все сериалы на PB.wtf

RePack

FAR CRY 5
  

Мир Юрского периода (Колин Треворроу) [2015 г., фантастика, приключения, боевик, BDRip, Дубляж "Лицензия"] pb.wtf

Мир Юрского периода через торрент pb.wtf

Размер: 2.17 GB | Добавлен: 4 года 11 мес. назад | Торрент скачан:286 раз
Скачать  

27-09-2015 16:33 Мир Юрского периода Скачать торрент  

Мир Юрского периода / Jurassic World
Год выпуска: 2015
Страна: США, Китай / Universal Pictures, Amblin Entertainment, Legendary Pictures
Жанр: фантастика, приключения, боевик
Продолжительность: 02:04:21
Перевод: Дубляж (Лицензия)

Режиссер: Колин Треворроу

IMDB 7.20 (264 251)


В ролях: Крис Пратт, Брайс Даллас Ховард, Ник Дж. Робинсон, Тай Симпкинс, Винсент Д’Онофрио, Ирфан Кхан, Омар Си, Б.Д. Вонг, Джейк Джонсон, Джуди Грир

Описание: Тысячи людей спешат увидеть Мир Юрского периода, но безопасное на первый взгляд развлечение может обернуться угрозой для их жизней...

Качество: BDRip (Рип с Blu-ray CEE 1080p AVC DTS 5.1)
Формат: AVI
Видео кодек: XviD
Аудио кодек: AC3
Видео: 720x360 (2.00:1), 23.976 fps, XviD build 50 ~2042 kbps avg, 0.33 bit/pixel
Аудио: 48 kHz, AC3 Dolby Digital, 3/2 (L,C,R,l,r) + LFE ch, ~448 kbps

Общее
Полное имя : F:\кино\Мир Юрского периода .2015.D.BDRip.avi
Формат : AVI
Формат/Информация : Audio Video Interleave
Профиль формата : OpenDML
Размер файла : 2,17 Гбайт
Продолжительность : 2 ч. 4 м.
Общий поток : 2497 Кбит/сек
Программа кодирования : VirtualDubMod 1.5.10.3 | www.virtualdub-fr.org || (build 2550/release)
Библиотека кодирования : VirtualDubMod build 2550/release

Видео
Идентификатор : 0
Формат : MPEG-4 Visual
Профиль формата : Advanced Simple@L5
Параметр BVOP формата : 2
Параметр QPel формата : Нет
Параметр GMC формата : Без точки перехода
Параметр матрицы формата : Default (H.263)
Идентификатор кодека : XVID
Идентификатор кодека/Подсказка : XviD
Продолжительность : 2 ч. 4 м.
Битрейт : 2037 Кбит/сек
Ширина : 720 пикселей
Высота : 360 пикселей
Соотношение сторон : 2,000
Частота кадров : 23,976 кадра/сек
Цветовое пространство : YUV
Субдискретизация насыщенности : 4:2:0
Битовая глубина : 8 бит
Тип развёртки : Прогрессивная
Метод сжатия : С потерями
Бит/(Пиксели*Кадры) : 0.328
Размер потока : 1,77 Гбайт (82%)
Библиотека кодирования : XviD 1.2.1 (UTC 2008-12-04)

Аудио
Идентификатор : 1
Формат : AC-3
Формат/Информация : Audio Coding 3
Расширение режима : CM (complete main)
Параметр Endianness формата : Big
Идентификатор кодека : 2000
Продолжительность : 2 ч. 4 м.
Вид битрейта : Постоянный
Битрейт : 448 Кбит/сек
Каналы : 6 каналов
Расположение каналов : Front: L C R, Side: L R, LFE
Частота : 48,0 КГц
Метод сжатия : С потерями
Размер потока : 398 Мбайт (18%)
Выравнивание : Разделение по промежуткам
Продолжительность промежутка : 42 мс. (1,00 видеокадр)
Время предзагрузки промежутка : 500 мс.

pb.wtf



Скачать Мир Юрского периода через торрент http://pic1.kartinco.top/images/10/eyqvx.jpg Скачать фильм Мир Юрского периода через торрент бесплантно в хорошем качестве Описание: Тысячи людей спешат увидеть Мир Юрского периода, но безопасное на первый взгляд развлечение может обернуться угрозой для их ... 10 10 15
Торрент: Зарегистрирован [2015-09-27 16:33] · скачан: 286 раз
Статус: √ проверено
Размер: 2.17 GB
Как cкачать? Как скачать Мир Юрского периода через торрент | qTorrent

% Раздел Тема Автор DL S | L
Мультсериалы [ 8.15 GB ] Мир Юрского периода: Лагерь Мелового периода / Jurassic World: Camp Cretaceous/ Сезон: 1 / Серии: 1-8 из 8 [2020 Мультфильм детский WEB-DL 1080p] MVO [Jaskier] bober100 Скачать
5 | 0
Мультсериалы [ 4.99 GB ] Мир Юрского периода: Лагерь Мелового периода / Jurassic World: Camp Cretaceous/ Сезон: 1 / Серии: 1-8 из 8 [2020 Мультфильм детский WEB-DL 720p] MVO [Jaskier] bober100 Скачать
2 | 0
Мультсериалы [ 2.28 GB ] Мир Юрского периода: Лагерь Мелового периода / Jurassic World: Camp Cretaceous/ Сезон: 1 / Серии: 1-8 из 8 [2020 Мультфильм детский WEB-DLRip] MVO [Jaskier] bober100 Скачать
2 | 0
Мультсериалы [ 8.85 GB ] Мир Юрского периода: Лагерь Мелового периода / Jurassic World: Camp Cretaceous / Сезон 1 / Серии 1-8 из 8 [2020 Мультфильм детский WEB-DL 1080p] killermax2013 Скачать
10 | 1
Мультсериалы [ 3.48 GB ] Мир Юрского периода: Лагерь Мелового периода / Jurassic World: Camp Cretaceous / Сезон 1 / Серии 1-8 из 8 [2020 Мультфильм детский WEB-DLRip] - [Netflix] Twi7ter Скачать
19 | 4
* Фильмы (Blu-ray, BD-Remux, HDDVD) [ 28.45 GB ] Мир Юрского периода / Jurassic World [2015 BD Remux ()] Бумер Скачать
1 | 0
Фильмы (HD 720p, 1080p) (48-60 fps) [ 3.92 GB ] Мир Юрского периода 2 / Jurassic World: Fallen Kingdom [2018 BDRip 720p / 60 FPS ] от R.G. HD-Films slaventi-69 Скачать
2 | 0

28-11-2019 20:33  

Отключить всю рекламу на сайте

    Дорогой пользователь! Огромная просьба, поблагодарите релизера, оцените раздачу и оставьте свои комментарий, если Вы скачали Мир Юрского периода через торрент бесплатно! Внесите свою лепту в развитие PiratBit!
    Комментировать посты могут только пользователи прошедшие не сложную регистрацию
    Показать сообщения:    

    Мир Юрского периода через торрент
    Скачать бесплатно Мир Юрского периода
    Мир Юрского периода скачать торрент
    Мир Юрского периода смотреть онлайн
    Cкачать фильм Мир Юрского периода бесплатно
    Мир Юрского периода скачать торрент в хорошем качестве
    Мир Юрского периода смотреть онлайн бесплатно в хорошем качестве


    Вы не можете начинать темы
    Вы не можете отвечать на сообщения
    Вы не можете редактировать свои сообщения
    Вы не можете удалять свои сообщения
    Вы не можете голосовать в опросах
    Вы не можете прикреплять файлы к сообщениям
    Вы можете скачивать файлы