Ссылка на приватное зеркало нашего сайта всего за 1$. Внимание количество ограничено!!!

2 сезон

iTunes

1 сезон

1

iTunes

iTunes

iTunes

1 сезон

RePack

30

ИГРА 18+

pack

ВАЖНО

!!Акция!!

Alien_RageХит недели

RePack

MK11
pack

Забери бонус

RePack

jed

!!Акция!!

Alien_Rage

RePack

fifa19

RePack

Assassins Creed: Odyssey

RePack

NEED FOR SPEED™ PAYBACK

4 сезон

9 сезон

Бесстыжие 9 сезон

Все сериалы

все сериалы на PB.wtf

RePack

FAR CRY 5
  

Исцеление / Серии: 1-2 из 2 (Роман Просвирнин) [2015, мелодрама, HDTV 1080i] pb.wtf

Исцеление через торрент pb.wtf

Размер: 10.5 GB | Добавлен: 5 лет назад | Торрент скачан:88 раз
Скачать  

27-09-2015 19:23 Исцеление Скачать торрент  

Исцеление
Год выпуска: 2015
Производство: Россия, Кинокомпания "Русское"
Жанр: Мелодрама
Продолжительность: 2x~01:30:00
Субтитры: Нет
Режиссёр: Роман Просвирнин
В ролях: Ольга Иванова (IV), Сергей Марин, Алексей Анищенко, Мария Горбань, Наталья Рудова, Диана Енакаева, Александр Обласов, Ирина Чериченко, Александр Наумов, Алёна Чехова
Описание: Добрая и чуткая Оля работает воспитательницей в детском садике. Она беззаветно любит мужа и мечтает о собственных детях. Но за мирным семейным фасадом скрывается тайна. Муж Денис давно ведет двойную жизнь – на стороне у него подрастает сын, а в семье его удерживают лишь деньги жены. Когда обман оказывается на грани разоблачения, Денис с любовницей затевают осуществление страшного замысла, едва не лишившего Олю жизни.
Качество: HDTV 1080i
Формат: TS
Видео кодек: H.264
Аудио кодек: MP2
Видео: AVC, 1920x1080 (16:9), 25.000 fps, ~ 7864 Kbps (0.152 bit/pixel)
Аудио: MP2, 48.0 KHz, 2 ch, 192 Kbps
Сэмпл
Реклама отсутствует.
General
ID : 1 (0x1)
Complete name : E:\TEMP\Iscelenie.HDTV.1080i\Iscelenie.01.HDTV.1080i.ts
Format : MPEG-TS
File size : 5.29 GiB
Duration : 1h 29mn
Overall bit rate mode : Variable
Overall bit rate : 8 476 Kbps

Video
ID : 2911 (0xB5F)
Menu ID : 1009 (0x3F1)
Format : AVC
Format/Info : Advanced Video Codec
Format profile : High@L4.0
Format settings, CABAC : Yes
Format settings, ReFrames : 4 frames
Codec ID : 27
Duration : 1h 29mn
Bit rate : 7 864 Kbps
Width : 1 920 pixels
Height : 1 080 pixels
Display aspect ratio : 16:9
Frame rate : 25.000 fps
Color space : YUV
Chroma subsampling : 4:2:0
Bit depth : 8 bits
Scan type : MBAFF
Bits/(Pixel*Frame) : 0.152
Stream size : 4.90 GiB (93%)

Audio
ID : 2912 (0xB60)
Menu ID : 1009 (0x3F1)
Format : MPEG Audio
Format version : Version 1
Format profile : Layer 2
Codec ID : 3
Duration : 1h 29mn
Bit rate mode : Constant
Bit rate : 192 Kbps
Channel(s) : 2 channels
Sampling rate : 48.0 KHz
Compression mode : Lossy
Stream size : 123 MiB (2%)
Language : Russian
pb.wtf



Скачать Исцеление через торрент http://i68.fastpic.ru/big/2015/0927/5e/48d37ee8436438780b3f47584e2b6e5e.jpg Скачать фильм Исцеление через торрент бесплантно в хорошем качестве Описание: Добрая и чуткая Оля работает воспитательницей в детском садике. Она беззаветно любит мужа и мечтает о собственных детях. Но за ... 10 10 3
Торрент: Зарегистрирован [2015-09-27 19:23] · скачан: 88 раз
Статус: √ проверено
Размер: 10.5 GB
Как cкачать? Как скачать Исцеление через торрент | qTorrent

28-11-2019 20:33  

Отключить всю рекламу на сайте

    Дорогой пользователь! Огромная просьба, поблагодарите релизера, оцените раздачу и оставьте свои комментарий, если Вы скачали Исцеление через торрент бесплатно! Внесите свою лепту в развитие PiratBit!
    Комментировать посты могут только пользователи прошедшие не сложную регистрацию
    Показать сообщения:    

    Исцеление через торрент
    Скачать бесплатно Исцеление
    Исцеление скачать торрент
    Исцеление смотреть онлайн
    Cкачать фильм Исцеление бесплатно
    Исцеление скачать торрент в хорошем качестве
    Исцеление смотреть онлайн бесплатно в хорошем качестве


    Вы не можете начинать темы
    Вы не можете отвечать на сообщения
    Вы не можете редактировать свои сообщения
    Вы не можете удалять свои сообщения
    Вы не можете голосовать в опросах
    Вы не можете прикреплять файлы к сообщениям
    Вы можете скачивать файлы