Ссылка на приватное зеркало всего за 1$. Внимание количество ограничено!!!

iTunes

iTunes

iTunes

1

iTunes

iTunes

iTunes

iTunes

iTunes

30
pack

$ от Little Big

ВАЖНО

!!Акция!!

Alien_RageХит недели

RePack

Resident Evil 21

ИГРА 18+

pack

RePack

jed

!!Акция!!

Alien_Rage

RePack

fifa19

RePack

Assassins Creed: Odyssey

RePack

NEED FOR SPEED™ PAYBACK

4 сезон

9 сезон

Бесстыжие 9 сезон

Все сериалы

все сериалы на PB.wtf

RePack

FAR CRY 5
  

Прогулка с мертвецами / Walking with the Dead (Скотт Дау) [2015, Комедия, WEB-DL 720p] MVO [Студия Kansai] pb.wtf

Прогулка с мертвецами через торрент pb.wtf

Размер: 2.89 GB | Добавлен: 4 года 9 мес. назад | Торрент скачан:256 раз
Скачать  

27-09-2015 19:43 Прогулка с мертвецами Скачать торрент  


Прогулка с мертвецами / Walking with the Dead


ИНФОРМАЦИЯ:
Год выпуска:2015
Страна: США
Жанр: комедия
Продолжительность: 01:28:12
Перевод: Профессиональный (многоголосый)[Студия Kansai]
Режиссер: Скотт Дау

В Ролях:


Тим Оглтри (Green Bay), Джои Оглсби (Chicago), Дейв Шеридан (Sheriff Lincoln), Трой Оглтри (Romeo), Софи Тэйлор Али (Brooklyn), Даниэль Гарсия (Harlem), Mason Dakota Galyon (Chris), Жак Холлэнд (Isaac), Эндрю Подза (Darnell), Richard Lukens (Abraham), Марта Прентисс (Sarah), Трентон Ростедт (Mysterious Wanderer)

Описание:
Очнувшись в больнице, полицейский офицер с удивлением обнаруживает, что он находится в центре зомби-апокалипсиса. Теперь ему придется приложить максимум усилий, чтобы найти свою семью.

  • Мировая премьера:15 марта 2015

    ТЕХ.ДАННЫЕ:
    Качество: WEB-DL 720p
    Формат: MKV
    Видео: AVC, 1280x718 (16:9), 3951 kbps, 23,976 fps, 0,179 bpp
    Аудио №1: русский / AC3 / 2.0 / 48 kHz / 256 kbps / 16 bit ||
    Аудио №2: английский / AC3 / 5.1 / 48 kHz / 384 kbps / 16 bit
    Навигация по главам: есть


    Цитата:

    Покупка исходника в iTuns: Roup
    Заказ озвучки: Roup
    Наложение звук. дорожки на видео: cruten
    Русифицированный постер: BloodAngel
    Особая благодарность за помощь в подготовки релиза: BloodAngel и cruten


    General
    Unique ID : 229142936251332819689181462257096337580 (0xAC635301DC10DA54AB9281BD206228AC)
    Complete name : D:\Торенты\The.Walking.Deceased.2015.WEB-DL.720p [Kansai].mkv
    Format : Matroska
    Format version : Version 4 / Version 2
    File size : 2.89 GiB
    Duration : 1h 28mn
    Overall bit rate : 4 685 Kbps
    Encoded date : UTC 2015-09-27 10:38:26
    Writing application : mkvmerge v6.1.0 ('Old Devil') built on Mar 4 2013 09:10:42
    Writing library : libebml v1.3.0 + libmatroska v1.4.0

    Video
    ID : 1
    Format : AVC
    Format/Info : Advanced Video Codec
    Format profile : High@L3.1
    Format settings, CABAC : No
    Format settings, ReFrames : 2 frames
    Codec ID : V_MPEG4/ISO/AVC
    Duration : 1h 28mn
    Bit rate : 3 951 Kbps
    Width : 1 280 pixels
    Height : 718 pixels
    Display aspect ratio : 16:9
    Frame rate : 23.976 fps
    Color space : YUV
    Chroma subsampling : 4:2:0
    Bit depth : 8 bits
    Scan type : Progressive
    Bits/(Pixel*Frame) : 0.179
    Stream size : 2.43 GiB (84%)
    Title : Roup
    Language : English
    Default : Yes
    Forced : No
    Color primaries : BT.709-5, BT.1361, IEC 61966-2-4, SMPTE RP177
    Transfer characteristics : BT.709-5, BT.1361
    Matrix coefficients : BT.709-5, BT.1361, IEC 61966-2-4 709, SMPTE RP177

    Audio #1
    ID : 2
    Format : AC-3
    Format/Info : Audio Coding 3
    Mode extension : CM (complete main)
    Codec ID : A_AC3
    Duration : 1h 28mn
    Bit rate mode : Constant
    Bit rate : 256 Kbps
    Channel(s) : 2 channels
    Channel positions : Front: L R
    Sampling rate : 48.0 KHz
    Bit depth : 16 bits
    Compression mode : Lossy
    Stream size : 162 MiB (5%)
    Title : Kansai
    Language : Russian
    Default : Yes
    Forced : No

    Audio #2
    ID : 3
    Format : AC-3
    Format/Info : Audio Coding 3
    Mode extension : CM (complete main)
    Codec ID : A_AC3
    Duration : 1h 28mn
    Bit rate mode : Constant
    Bit rate : 384 Kbps
    Channel(s) : 6 channels
    Channel positions : Front: L C R, Side: L R, LFE
    Sampling rate : 48.0 KHz
    Bit depth : 16 bits
    Compression mode : Lossy
    Stream size : 242 MiB (8%)
    Language : English
    Default : No
    Forced : No

    Menu
    00:00:00.000 : en:1
    00:05:23.000 : en:2
    00:11:24.000 : en:3
    00:17:15.000 : en:4
    00:25:59.000 : en:5
    00:34:16.000 : en:6
    00:42:29.000 : en:7
    00:52:03.000 : en:8
    00:59:39.000 : en:9
    01:08:06.000 : en:10
    01:15:08.000 : en:11
    01:21:39.000 : en:12
    Скриншоты:


    © Оформление by Ворон
    pb.wtf



  • Скачать Прогулка с мертвецами через торрент http://pic.kartinco.top/images/6/ordi9.jpg Скачать фильм Прогулка с мертвецами через торрент бесплантно в хорошем качестве Описание: Очнувшись в больнице, полицейский офицер с удивлением обнаруживает, что он находится в центре зомби-апокалипсиса. Теперь ему ... 8.5 10 13
    Торрент: Зарегистрирован [2015-09-27 19:43] · скачан: 256 раз
    Статус: √ проверено
    Размер: 2.89 GB
    Как cкачать? Как скачать Прогулка с мертвецами через торрент | qTorrent

    % Раздел Тема Автор DL S | L
    Фильмы 2015 [DVDrip, WEB-DLRip, HDrip] [ 1.47 GB ] Прогулка с мертвецами / Walking with the Dead [2015 HDRip] MVO Ворон Скачать
    1 | 0

    28-11-2019 20:33  

    Отключить всю рекламу на сайте

    28-09-2015 05:19 Прогулка с мертвецами Скачать торрент  

    Офицер полиции приходит в себя в больнице после месячной комы и с удивлением узнаёт, что за время его отключки мир превратился в зомби-апокалипсис... Что то мне это напоминает!
    Очередной ремейк "Ходячих мертвецов"! Вот только смотрибельный или нет?pb.wtf



    28-09-2015 06:42 Прогулка с мертвецами Скачать торрент  

    сомневаюсь что эта пародия достойна внимания-какой нибудь дебильный юмор с копеешными актерами-с копеешным бюджетом-чтобы срубить мальца бабла-на великом творении-ходячие мертвецы-где все было сделано безупречно и за большие деньги pb.wtf



    28-09-2015 07:21 Прогулка с мертвецами Скачать торрент  

    Ну, в отличие от оригинала, тут тема сисек раскрыта pb.wtf



    28-09-2015 16:25 Прогулка с мертвецами Скачать торрент  

    всё равно лучше 5 сезона под пивко самое оно.pb.wtf



    29-09-2015 19:03 Прогулка с мертвецами Скачать торрент  

    sasha1966 писал(а):

    сомневаюсь что эта пародия достойна внимания-какой нибудь дебильный юмор с копеешными актерами-с копеешным бюджетом-чтобы срубить мальца бабла-на великом творении-ходячие мертвецы-где все было сделано безупречно и за большие деньги

    Не соглашусь... Это творение достойно на существование, если спародировало хотя бы 10% того фейерверка ереси и нелогичности, феерической тупости ГГ и нудной сопледраммы к к которому "Ходячие" начали скатываться если не в 1ом то точно во втором сезоне....

    Плюсую, качаю! pb.wtf



    02-10-2015 23:20 Прогулка с мертвецами Скачать торрент  

    Snouman писал(а):

    Офицер полиции приходит в себя в больнице после месячной комы и с удивлением узнаёт, что за время его отключки мир превратился в зомби-апокалипсис... Что то мне это напоминает!
    Очередной ремейк "Ходячих мертвецов"! Вот только смотрибельный или нет?

    Перечислите все "очередные" ремейки данного произведения пжалуйста, я записую. Если пародию на известное произведение называть ремейком, это простите минимум некорректно.pb.wtf



      Дорогой пользователь! Огромная просьба, поблагодарите релизера, оцените раздачу и оставьте свои комментарий, если Вы скачали Прогулка с мертвецами через торрент бесплатно! Внесите свою лепту в развитие PiratBit!
      Комментировать посты могут только пользователи прошедшие не сложную регистрацию
      Показать сообщения:    

      Прогулка с мертвецами через торрент
      Скачать бесплатно Прогулка с мертвецами
      Прогулка с мертвецами скачать торрент
      Прогулка с мертвецами смотреть онлайн
      Cкачать фильм Прогулка с мертвецами бесплатно
      Прогулка с мертвецами скачать торрент в хорошем качестве
      Прогулка с мертвецами смотреть онлайн бесплатно в хорошем качестве


      Вы не можете начинать темы
      Вы не можете отвечать на сообщения
      Вы не можете редактировать свои сообщения
      Вы не можете удалять свои сообщения
      Вы не можете голосовать в опросах
      Вы не можете прикреплять файлы к сообщениям
      Вы можете скачивать файлы