новый адрес
Мега распродажа FORZA HORIZON 4 ULTIMATE+ВСЕ DLC+ОНЛАЙН всего за 499р. 349 руб. (супер цена). Внимание количество ограничено!!!

iTunes

1+1

iTunes

мы

iTunes

1

iTunes

Чернобыль

iTunes

Ральф против интернета

Лицензия

ПШазам

Лицензия

Игра престолов

Лицензия

30
pack

ВАЖНО

!!Акция!!

Alien_RageХит недели

RePack

Resident Evil 21

ИГРА 18+

pack

RePack

Metro:Exodus

!!Акция!!

Alien_Rage

RePack

fifa19

RePack

Assassins Creed: Odyssey

RePack

NEED FOR SPEED™ PAYBACK

3 сезон

9 сезон

Бесстыжие 9 сезон

Все сериалы

все сериалы на PB.wtf

RePack

FAR CRY 5
Ребята, катастрофически не хватает 1900р. для оплаты серверов за Октябрь (всвязи с блокировками трафик упал в 3 раза), 1-2р., выручайте.
  

Школьный вальс (Павел Любимов) [1977, СССР, драма, мелодрама, SATRip от AVP Studio] pb.wtf

Школьный вальс через торрент pb.wtf

Размер: 1.46 GB | Добавлен: 4 года 1 мес. назад | Торрент скачан:7 раз
Скачать  

28-09-2015 08:28 Школьный вальс Скачать торрент  

Школьный вальс
Страна: СССР
Производство: Киностудия им. М.Горького

Жанр: драма, мелодрама
Год выпуска: 1977
Продолжительность: 01:29:51

Перевод: Не требуется
Cубтитры: нет
Оригинальная аудиодорожка: русский

Режиссер: Павел Любимов

В ролях:
Елена Цыплакова, Сергей Насибов, Евгения Симонова, Наталья Вилькина, Юрий Соломин, Нина Меньшикова, Елена Фетисенко, Виктор Камаев, Лидия Матасова, Ромуальдас Викшрайтис, Антонина Дмитриева, Виктор Проскурин, Вера Благовидова, Тигран Давыдов, Сергей Бачурский, Екатерина Дурова...
Полный список актёров

Описание:
Окончена школа. Зосе и Гоше уже никто и ничто не помешает любить друг друга. Сообщив Гоше, что у них будет ребенок и поняв, что он испугался, Зося решается на трудную самостоятельную жизнь...

Источник: DVB
Качество видео: SATRip
Формат видео: AVI

Видео: 720x352 (2,045:1), 29,970 fps, XviD ~ 2122 kbps avg, 0.279 bit/pixel
Аудио: 48 kHz, Dolby Digital AC3 2.0, 192 kbps

Раздача от:
Общее
Полное имя : Shkolnyy.vals.1977.SATRip_[New-team]_by_AVP_Studio.avi
Формат : AVI
Формат/Информация : Audio Video Interleave
Размер файла : 1,46 Гбайт
Продолжительность : 1 ч. 29 м.
Общий поток : 2326 Кбит/сек
Программа кодирования : VirtualDubMod 1.5.10.3 | www.virtualdub-fr.org || (build 2550/release)
Библиотека кодирования : VirtualDubMod build 2550/release

Видео
Идентификатор : 0
Формат : MPEG-4 Visual
Профиль формата : Advanced Simple@L5
Параметр BVOP формата : 1
Параметр QPel формата : Нет
Параметр GMC формата : Без точки перехода
Параметр матрицы формата : Выборочная
Идентификатор кодека : XVID
Идентификатор кодека/Подсказка : XviD
Продолжительность : 1 ч. 29 м.
Битрейт : 2122 Кбит/сек
Ширина : 720 пикселей
Высота : 352 пикселя
Соотношение сторон : 2,045
Частота кадров : 29,970 кадров/сек
Цветовое пространство : YUV
Субдискретизация насыщенности : 4:2:0
Битовая глубина : 8 бит
Тип развёртки : Прогрессивная
Метод сжатия : С потерями
Бит/(Пиксели*Кадры) : 0.279
Размер потока : 1,33 Гбайт (91%)
Библиотека кодирования : XviD 73

Аудио
Идентификатор : 1
Формат : AC-3
Формат/Информация : Audio Coding 3
Расширение режима : CM (complete main)
Параметр Endianness формата : Big
Идентификатор кодека : 2000
Продолжительность : 1 ч. 29 м.
Вид битрейта : Постоянный
Битрейт : 192 Кбит/сек
Каналы : 2 канала
Расположение каналов : Front: L R
Частота : 48,0 КГц
Метод сжатия : С потерями
Размер потока : 123 Мбайт (8%)
Выравнивание : Разделение по промежуткам
Продолжительность промежутка : 33 мс. (1,00 видеокадр)
Время предзагрузки промежутка : 500 мс
pb.wtf



Скачать Школьный вальс через торрент http://s017.radikal.ru/i412/1509/7c/ad28f69c1821.png Скачать фильм Школьный вальс через торрент бесплантно в хорошем качестве Описание:Окончена школа. Зосе и Гоше уже никто и ничто не помешает любить друг друга. Сообщив Гоше, что у них будет ребенок и поняв, что он ... 10 10 1
Info! Золотая раздача, скачанное не засчитывается.
Торрент: Зарегистрирован [2015-09-28 08:28] · скачан: 7 раз
Статус: √ проверено
Размер: 1.46 GB
Как cкачать? Как скачать Школьный вальс через торрент | qTorrent

% Раздел Тема Автор DL S | L
Кино СССР [ 1.46 GB ] Школьный вальс [1977 СССР SATRip-AVC от AVP Studio] AVP Studio Скачать
1 | 0
Кино СССР [ 746 MB ] Школьный вальс [1977 СССР SATRip от AVP Studio] AVP Studio Скачать
1 | 0


>> Регистрируемся здесь <<






Отзывы и комментарии о схеме читаем и пишем здесь: ---> Отзывы и комментарии о схеме

Новые благодарочки в телеграм довольных пользователей:
скриншот   скриншот   скриншот   скриншот   скриншот
    Дорогой пользователь! Огромная просьба, поблагодарите релизера, оцените раздачу и оставьте свои комментарий, если Вы скачали Школьный вальс через торрент бесплатно! Внесите свою лепту в развитие PiratBit!
    Комментировать посты могут только пользователи прошедшие не сложную регистрацию
    Показать сообщения:    

    Школьный вальс через торрент
    Скачать бесплатно Школьный вальс
    Школьный вальс скачать торрент
    Школьный вальс смотреть онлайн
    Cкачать фильм Школьный вальс бесплатно
    Школьный вальс скачать торрент в хорошем качестве
    Школьный вальс смотреть онлайн бесплатно в хорошем качестве


    Вы не можете начинать темы
    Вы не можете отвечать на сообщения
    Вы не можете редактировать свои сообщения
    Вы не можете удалять свои сообщения
    Вы не можете голосовать в опросах
    Вы не можете прикреплять файлы к сообщениям
    Вы можете скачивать файлы