Всегда рабочее зеркало без VPN и Proxy просто перед .vidak.icu напиши любое слово или цифру, Пример http://gyib.vidak.icu

MVO

2 сезон

2 сезон

1

1 сезон

iTunes

2 сезон

13

1 сезон

Deluxe

pack

Рекомендуем

Пиратка

30

ВАЖНО

RePack

MK11

RePack

jed

RePack

fifa19

RePack

RDR2

RePack

NEED FOR SPEED™ PAYBACK

Кинопоиск HD

6 сезон

 Острые козырьки 6 сезон

Все сериалы

все сериалы на PB.wtf

RePack

FAR CRY 5

Anonymous, нам критически не хватает 5601 руб. на оплату серверов и переферии за Апрель, помоги нам пожалуйста, вся надежда только на тебя. В благодарность мы отключим тебе всю рекламу на сайте!

×
  
Magnet ссылка

Одержимость Майкла Кинга / The Possession of Michael King (Дэвид Юнг) [2014, ужасы, HDRip-AVC от Ворон] DUB pb.wtf

Одержимость Майкла Кинга через торрент pb.wtf

Раздают: 1 [ 0 KB/s ]
Размер: 1.46 GB | Добавлен: 6 лет 7 мес. назад | Торрент скачан:598 раз
Смотреть онлайн Одержимость Майкла Кинга | Скачать    Ребята, помогите собрать деньги на оплату серверов!!!

28-09-2015 16:25 Одержимость Майкла Кинга Скачать торрент  


Одержимость Майкла Кинга / The Possession of Michael King
««Зло не отпустит тебя»»

ИНФОРМАЦИЯ:
Год выпуска:2014
Страна: США
Жанр: ужасы
Продолжительность: 01:23:24
Перевод: Дубляж [Официальный]
Режиссер: Дэвид Юнг

В Ролях:


Шэйн Джонсон (Michael King), Элла Андерсон (Ellie King), Кара Пифко (Samantha), Кристал Альварез (Waitress), Томас Арана (Augustine), Люк Бэйнс (Elias), Дейл Дикки (Beverly), Каллен Дуглас (Mortician), Майкл Рэй Эскамиллья (The Engineer), Рамона Дж. Фаррингтон (Audience Member), Гейб Гомез (Adult Park Goer #3), Патриция Хили (Marsha)

Описание:
Главный герой фильма - режиссер-документалист, который не верит ни в Бога, ни в дьявола. Когда умирает его жена, он решает снять фильм о религии и спиритуализме и доказать, что вся мистика - это просто выдумка. В процессе съемок он встречается с демонологами, некромантами и оккультистами, которые испытывают на нем самые темные и сильные заклятия. Эти обряды пробуждают неведомые и безудержные силы зла...

  • Мировая премьера:14 августа 2014

    ТЕХ.ДАННЫЕ:
    Качество: HDRip-AVCАвтор рипа: by Ворон
    Формат: MKV
    Видео: AVC, 1024x576 (16:9), 2118 kbps, 23,976 fps, 0,150 bpp
    Аудио: русский / AC3 / 5.1 / 48 kHz / 384 kbps / 16 bit ||


    Код:

    x264 [info]: frame I:815   Avg QP:15.13  size: 56120
    x264 [info]: frame P:27777 Avg QP:16.52  size: 22363
    x264 [info]: frame B:91384 Avg QP:18.47  size:  6986

    General
    Unique ID : 172077488590458162436163517272541015249 (0x8174EB36AE99D04698FB04148202ACD1)
    Complete name : D:\Торенты\Раздачи\Одержимость Майкла Кинга_ 2014_HDRip-AVC_by Ворон .mkv
    Format : Matroska
    Format version : Version 4 / Version 2
    File size : 1.46 GiB
    Duration : 1h 23mn
    Overall bit rate : 2 502 Kbps
    Movie name : Рип by Ворон для ПиратБит.Нет
    Encoded date : UTC 2015-09-28 16:17:05
    Writing application : mkvmerge v7.4.0 ('Circles') 64bit built on Dec 12 2014 12:19:56
    Writing library : libebml v1.3.0 + libmatroska v1.4.1
    DURATION : 01:23:24.032000000
    NUMBER_OF_FRAMES : 156376
    NUMBER_OF_BYTES : 240193536
    _STATISTICS_WRITING_APP : mkvmerge v7.4.0 ('Circles') 64bit built on Dec 12 2014 12:19:56
    _STATISTICS_WRITING_DATE_UTC : 2015-09-28 16:17:05
    _STATISTICS_TAGS : BPS DURATION NUMBER_OF_FRAMES NUMBER_OF_BYTES
    Attachment : Yes

    Video
    ID : 1
    Format : AVC
    Format/Info : Advanced Video Codec
    Format profile : High@L4.1
    Format settings, CABAC : Yes
    Format settings, ReFrames : 4 frames
    Codec ID : V_MPEG4/ISO/AVC
    Duration : 1h 23mn
    Bit rate : 2 118 Kbps
    Width : 1 024 pixels
    Height : 576 pixels
    Display aspect ratio : 16:9
    Frame rate : 23.976 fps
    Color space : YUV
    Chroma subsampling : 4:2:0
    Bit depth : 8 bits
    Scan type : Progressive
    Bits/(Pixel*Frame) : 0.150
    Stream size : 1.21 GiB (83%)
    Title : Рип by Ворон для ПиратБит.Нет
    Writing library : x264 core 125 r2208 d9d2288
    Encoding settings : cabac=1 / ref=4 / deblock=1:-2:-2 / analyse=0x3:0x133 / me=umh / subme=9 / psy=1 / psy_rd=1.00:0.10 / mixed_ref=1 / me_range=16 / chroma_me=1 / trellis=2 / 8x8dct=1 / cqm=0 / deadzone=21,11 / fast_pskip=0 / chroma_qp_offset=-3 / threads=6 / lookahead_threads=1 / sliced_threads=0 / nr=0 / decimate=0 / interlaced=0 / bluray_compat=0 / constrained_intra=0 / bframes=7 / b_pyramid=2 / b_adapt=2 / b_bias=0 / direct=3 / weightb=1 / open_gop=0 / weightp=2 / keyint=250 / keyint_min=23 / scenecut=40 / intra_refresh=0 / rc=2pass / mbtree=0 / bitrate=2118 / ratetol=1.0 / qcomp=0.60 / qpmin=0 / qpmax=69 / qpstep=4 / cplxblur=20.0 / qblur=0.5 / ip_ratio=1.40 / pb_ratio=1.30 / aq=1:0.80
    Language : Russian
    Default : Yes
    Forced : No

    Audio
    ID : 2
    Format : AC-3
    Format/Info : Audio Coding 3
    Mode extension : CM (complete main)
    Codec ID : A_AC3
    Duration : 1h 23mn
    Bit rate mode : Constant
    Bit rate : 384 Kbps
    Channel(s) : 6 channels
    Channel positions : Front: L C R, Side: L R, LFE
    Sampling rate : 48.0 KHz
    Bit depth : 16 bits
    Compression mode : Lossy
    Stream size : 229 MiB (15%)
    Title : Дубляж
    Language : Russian
    Default : Yes
    Forced : Yes
    Скриншоты:



    © Оформление by Ворон
    pb.wtf



  • Скачать Одержимость Майкла Кинга через торрент http://5.firepic.org/5/images/2015-09/28/xuw0thso4bmt.png Скачать, смотреть онлайн Одержимость Майкла Кинга бесплантно в хорошем качестве Описание: Главный герой фильма - режиссер-документалист, который не верит ни в Бога, ни в дьявола. Когда умирает его жена, он решает снять ... 9.3 10 16
    Info! Золотая раздача, скачанное не засчитывается.
    Торрент: Зарегистрирован [2015-09-28 16:25] · скачан: 598 раз
    Статус: √ проверено
    Размер: 1.46 GB
    Как cкачать? Как скачать Одержимость Майкла Кинга через торрент | UTorrent

    28-11-2019 20:33  

    Отключить всю рекламу на сайте

    01-10-2015 08:25 Одержимость Майкла Кинга Скачать торрент  

    Зачетное кинцо!pb.wtf



    26-12-2015 19:07 Одержимость Майкла Кинга Скачать торрент  

    На мой взгляд ну очень фу-фу-фу pb.wtf



      Дорогой пользователь! Огромная просьба, поблагодарите релизера, оцените раздачу и оставьте свои комментарий, если Вы скачали Одержимость Майкла Кинга через торрент бесплатно!
      Комментировать посты могут только пользователи прошедшие не сложную регистрацию
      Показать сообщения:    

      Одержимость Майкла Кинга через торрент
      Скачать бесплатно Одержимость Майкла Кинга
      Одержимость Майкла Кинга скачать торрент
      Одержимость Майкла Кинга смотреть онлайн
      Cкачать фильм Одержимость Майкла Кинга бесплатно
      Одержимость Майкла Кинга скачать торрент в хорошем качестве
      Одержимость Майкла Кинга смотреть онлайн бесплатно в хорошем качестве


      Вы не можете начинать темы
      Вы не можете отвечать на сообщения
      Вы не можете редактировать свои сообщения
      Вы не можете удалять свои сообщения
      Вы не можете голосовать в опросах
      Вы не можете прикреплять файлы к сообщениям
      Вы можете скачивать файлы