Ссылка на приватное зеркало нашего сайта всего за 1$. Внимание количество ограничено!!!

2 сезон

iTunes

1 сезон

1

2 сезон

2 сезон

iTunes

1 сезон

RePack

30

Ultimate

ВАЖНО

ИГРА 18+

pack

RePack

MK11
pack

Забери бонус

RePack

jed

!!Акция!!

Alien_Rage

RePack

fifa19

RePack

Assassins Creed: Odyssey

RePack

NEED FOR SPEED™ PAYBACK

4 сезон

9 сезон

Бесстыжие 9 сезон

Все сериалы

все сериалы на PB.wtf

RePack

FAR CRY 5
  

Эдем / Eden (Шиам Мадиражу) [2014, триллер, драма, WEB-DL 720p, Любительский (многоголосый) [GreenРай Studio] pb.wtf

Эдем через торрент pb.wtf

Размер: 3.1 GB | Добавлен: 5 лет 2 мес. назад | Торрент скачан:72 раза
Скачать  

28-09-2015 17:09 Эдем Скачать торрент  


Эдем / Eden


ИНФОРМАЦИЯ:
Год выпуска:2014
Страна: Испания, Малайзия
Жанр: триллер, драма
Продолжительность: 01:36:26
Перевод: Любительский (многоголосый) [GreenРай Studio]
Субтитры: английские,
Режиссер: Шиам Мадиражу

В Ролях:


Джессика Лаундес (Elena), Джеймс Римар (Coach Defoe), Санг Кенг (Connie), Диего Бонета (Arnie), Нэйт Паркер (Slim), Роб Майес (Markese), Юджин Саймон (Kennefick), Итан Пек (Andreas), Марио Касас (Felix), Джои Поллари (Georgie), Мэтт Тестро (Doug), Майкл Карделль (McKenna)

Описание:
После падения самолета у берегов необитаемого острова, выжившие члены международной команды по футболу сталкиваются одновременно и с дикой природой, и с ухудшением психики своих же товарищей.

  • Мировая премьера:19 ноября 2014

    ТЕХ.ДАННЫЕ:
    Качество: WEB-DL 720p
    Формат: MKV
    Видео: AVC, 1280x532 (2.40:1), 3927 kbps, 23,976 fps, 0,241 bpp
    Аудио №1: русский / AC3 / 2.0 / 48 kHz / 192 kbps / 16 bit ||
    Аудио №2: английский / AC3 / 5.1 / 48 kHz / 384 kbps / 16 bit


    General
    Unique ID : 233318141278816743788859256810055895447 (0xAF87708223997C668DF8C962E8678997)
    Complete name : D:\Торенты\3d3M.2014.MVO.WEB-DL-720p.GreenРайStudio.mkv
    Format : Matroska
    Format version : Version 4 / Version 2
    File size : 3.10 GiB
    Duration : 1h 36mn
    Overall bit rate : 4 595 Kbps
    Encoded date : UTC 2015-09-28 14:55:10
    Writing application : mkvmerge v6.9.1 ('Blue Panther') 64bit built on Apr 18 2014 18:23:38
    Writing library : libebml v1.3.0 + libmatroska v1.4.1

    Video
    ID : 1
    Format : AVC
    Format/Info : Advanced Video Codec
    Format profile : Main@L3.1
    Format settings, CABAC : No
    Format settings, ReFrames : 2 frames
    Codec ID : V_MPEG4/ISO/AVC
    Duration : 1h 36mn
    Bit rate : 3 928 Kbps
    Width : 1 280 pixels
    Height : 532 pixels
    Display aspect ratio : 2.40:1
    Frame rate : 23.976 fps
    Color space : YUV
    Chroma subsampling : 4:2:0
    Bit depth : 8 bits
    Scan type : Progressive
    Bits/(Pixel*Frame) : 0.241
    Stream size : 2.65 GiB (85%)
    Title : Eden.2014.720p.WEB-DL.DD5.1.H264-RARBG
    Language : English
    Default : Yes
    Forced : No
    Color primaries : BT.709-5, BT.1361, IEC 61966-2-4, SMPTE RP177
    Transfer characteristics : BT.709-5, BT.1361
    Matrix coefficients : BT.709-5, BT.1361, IEC 61966-2-4 709, SMPTE RP177

    Audio #1
    ID : 2
    Format : AC-3
    Format/Info : Audio Coding 3
    Mode extension : CM (complete main)
    Codec ID : A_AC3
    Duration : 1h 36mn
    Bit rate mode : Constant
    Bit rate : 192 Kbps
    Channel(s) : 2 channels
    Channel positions : Front: L R
    Sampling rate : 48.0 KHz
    Bit depth : 16 bits
    Compression mode : Lossy
    Stream size : 132 MiB (4%)
    Language : Russian
    Default : Yes
    Forced : Yes

    Audio #2
    ID : 3
    Format : AC-3
    Format/Info : Audio Coding 3
    Mode extension : CM (complete main)
    Codec ID : A_AC3
    Duration : 1h 36mn
    Bit rate mode : Constant
    Bit rate : 384 Kbps
    Channel(s) : 6 channels
    Channel positions : Front: L C R, Side: L R, LFE
    Sampling rate : 48.0 KHz
    Bit depth : 16 bits
    Compression mode : Lossy
    Stream size : 265 MiB (8%)
    Language : English
    Default : No
    Forced : No

    Text
    ID : 4
    Format : UTF-8
    Codec ID : S_TEXT/UTF8
    Codec ID/Info : UTF-8 Plain Text
    Language : English
    Default : No
    Forced : No
    Скриншоты:


    © Оформление by Ворон
    pb.wtf



  • Скачать Эдем через торрент http://pic.kartinco.top/images/6/ordi9.jpg Скачать фильм Эдем через торрент бесплантно в хорошем качестве Описание: После падения самолета у берегов необитаемого острова, выжившие члены международной команды по футболу сталкиваются одновременно ... 8.2 10 5
    Торрент: Зарегистрирован [2015-09-28 17:09] · скачан: 72 раз
    Статус: √ проверено
    Размер: 3.1 GB
    Как cкачать? Как скачать Эдем через торрент | qTorrent

    % Раздел Тема Автор DL S | L
    Фильмы 2014 [DVDrip, WEB-DLRip, HDrip] [ 743 MB ] Эдем / Eden [2014 HDRip] MVO bober100 Скачать
    2 | 0
    T Фильмы [HD 720p, 1080p] (Хороший звук DUB, MVO) [ 8.99 GB ] Эдем / Eden [2014 BDRip 1080p] MVO bober100 Скачать
    2 | 0
    Фильмы 2014 [DVDrip, WEB-DLRip, HDrip] [ 1.46 GB ] Эдем / Eden [2014 HDRip] MVO bober100 Скачать
    1 | 0
    Фильмы (WEB-DL 720p, 1080p) [ 480 MB ] Far Cry 5: У врат Эдема / Far Cry 5: Inside Eden's Gate [2018 короткометражка WEB-DLRip 1080p HEVC] MVO -Lexx- Скачать
    1 | 0
    T Фильмы (мультфильмы) cо спонсором показа (Новинки AVI/MKV) [ 700 MB ] Фар Край 5: "За вратами Эдема" / Far Cry 5: Inside Eden's Gate [2018 WEB-DLRip] MVO ["Синема УС"] bober100 Скачать
    1 | 0
    T Фильмы (мультфильмы) cо спонсором показа (Новинки AVI/MKV) [ 1.31 GB ] Фар Край 5: "За вратами Эдема" / Far Cry 5: Inside Eden's Gate [2018 WEB-DL 720p] MVO ["Синема УС"] bober100 Скачать
    1 | 0
    Порно фильмы с русским переводом [ 3.35 GB ] Эдем. / Eden. [2007 Feature. HDRip одноголосый] Pir@tya2010 Скачать
    1 | 0

    28-11-2019 20:33  

    Отключить всю рекламу на сайте

    28-09-2015 18:53 Эдем Скачать торрент  

    LOST? Качнем, глянем.pb.wtf



      Дорогой пользователь! Огромная просьба, поблагодарите релизера, оцените раздачу и оставьте свои комментарий, если Вы скачали Эдем через торрент бесплатно! Внесите свою лепту в развитие PiratBit!
      Комментировать посты могут только пользователи прошедшие не сложную регистрацию
      Показать сообщения:    

      Эдем через торрент
      Скачать бесплатно Эдем
      Эдем скачать торрент
      Эдем смотреть онлайн
      Cкачать фильм Эдем бесплатно
      Эдем скачать торрент в хорошем качестве
      Эдем смотреть онлайн бесплатно в хорошем качестве


      Вы не можете начинать темы
      Вы не можете отвечать на сообщения
      Вы не можете редактировать свои сообщения
      Вы не можете удалять свои сообщения
      Вы не можете голосовать в опросах
      Вы не можете прикреплять файлы к сообщениям
      Вы можете скачивать файлы