Всегда рабочее зеркало без VPN и Proxy просто перед .vidak.icu напиши любое слово или цифру, Пример http://lux2.vidak.icu

MVO

Лицензия

1 сезон

1

1 сезон

iTunes

1 сезон

13

1 сезон

Deluxe

pack

Рекомендуем

Repack

30

ВАЖНО

RePack

MK11

RePack

jed

RePack

fifa19

RePack

RDR2

RePack

NEED FOR SPEED™ PAYBACK

Кинопоиск HD

6 сезон

 Острые козырьки 6 сезон

Все сериалы

все сериалы на PB.wtf

RePack

FAR CRY 5
  
Magnet ссылка

Признайте меня виновным / Find Me Guilty (Сидни Люмет / Sidney Lumet) [2006, драма, комедия, криминал, BDRip 720p от potroks] MVO [Лицензия] pb.wtf

Признайте меня виновным через торрент pb.wtf

Размер: 7.48 GB | Добавлен: 6 лет 9 мес. назад | Торрент скачан:127 раз
Смотреть онлайн Признайте меня виновным | Скачать    Ребята, помогите собрать деньги на оплату серверов!!!

28-09-2015 19:09 Признайте меня виновным Скачать торрент  

Признайте меня виновным / Find Me Guilty
«Иногда лучшим адвокатом может стать... гангстер»
Год выпуска: 2006
Страна: США, Германия / Yari Film Group Releasing, Bob Yari Productions...
Жанр: драма, комедия, криминал, биография
Продолжительность: 02:04:39
Перевод: Профессиональный многоголосый [R5]
Субтитры: русские, английские (SDH)
Навигация по главам: есть
Режиссер: Сидни Люмет / Sidney Lumet
В ролях:

Вин Дизель (Jackie DiNorscio), Питер Динклэйдж (Ben Klandis), Лайнас Роуч (Sean Kierney), Рон Сильвер (Judge Finestein), Аннабелла Шиорра (Bella DiNorscio), Алекс Рокко (Nick Calabrese), Фрэнк Пьетранголаре (Carlo Mascarpone), Ричард ДеДоменико (Tom Napoli), Джерри Грэйсон (Jimmy Katz), Тони Рэй Росси (Joe Bellini), Винни Велла (Graziedei), Пол Боргезе (Gino Mascarpone)
Описание: Когда полиции удается арестовать 20 членов мафиозного клана Луккези, Джеки ДиНоршио по прозвищу Толстяк Ди, уже отбывающий 30-летний тюремный срок, получает соблазнительное предложение: Джеки выйдет на волю досрочно, если даст показания против своих корешей. Но Толстяк Ди - не стукач!
На процессе, который станет самым долгим и самым скандальным судебным разбирательством в США, он будет защищать себя сам. Вступив в непредсказуемый и рискованный поединок с властями, этот наглец и остряк доведет суд до абсурда, обратит факты против своих обвинителей и добьется самого шокирующего вердикта в истории американского правосудия!

Качество: BDRip 720p
Формат: MKV
Видео кодек: AVC
Аудио кодек: AC3, DTS
Видео: AVC, 1280x720 (16:9), 5908 kbps, 23,976 fps, 0,267 bit/pixel
Аудио №1: DTS / 5.1 / 48 kHz / 755 kbps / 24 bit | MVO - R5
Аудио №2: AC3 / 5.1 / 48 kHz / 640 kbps / 16 bit | AVO - Ю. Сербин
Аудио №3: AC3 / 5.1 / 48 kHz / 640 kbps / 16 bit | AVO - Д. Есарев
Аудио №4: AC3 / 5.1 / 48 kHz / 640 kbps / 16 bit | ENG
Релиз группы:
Автор рипа: potroks

Код:

General
Unique ID                                : 238394564722997599801545104755820771216 (0xB3591F8208D18E91987FC7912556B790)
Complete name                            : N:\Драма\Priznayte.Menya.Vinovnym.2006.MVO.AVO.ENG.BDRip.720p.-HELLYWOOD.mkv
Format                                   : Matroska
Format version                           : Version 4 / Version 2
File size                                : 7.48 GiB
Duration                                 : 2h 4mn
Overall bit rate                         : 8 595 Kbps
Movie name                               : Find Me Guilty (2006) - HELLYWOOD
Encoded date                             : UTC 2015-09-20 04:39:35
Writing application                      : mkvmerge v5.9.0 ('On The Loose') built on Dec 15 2012 16:39:58
Writing library                          : libebml v1.3.0 + libmatroska v1.4.0

Video
ID                                       : 1
Format                                   : AVC
Format/Info                              : Advanced Video Codec
Format profile                           : [email protected]
Format settings, CABAC                   : Yes
Format settings, ReFrames                : 9 frames
Codec ID                                 : V_MPEG4/ISO/AVC
Duration                                 : 2h 4mn
Bit rate                                 : 5 908 Kbps
Width                                    : 1 280 pixels
Height                                   : 720 pixels
Display aspect ratio                     : 16:9
Frame rate                               : 23.976 fps
Color space                              : YUV
Chroma subsampling                       : 4:2:0
Bit depth                                : 8 bits
Scan type                                : Progressive
Bits/(Pixel*Frame)                       : 0.267
Stream size                              : 5.01 GiB (67%)
Title                                    : potroks
Writing library                          : x264 core 146 r2538 121396c
Encoding settings                        : cabac=1 / ref=9 / deblock=1:-3:-3 / analyse=0x3:0x113 / me=umh / subme=11 / psy=1 / psy_rd=1.00:0.05 / mixed_ref=1 / me_range=48 / chroma_me=1 / trellis=2 / 8x8dct=1 / cqm=0 / deadzone=21,11 / fast_pskip=0 / chroma_qp_offset=-3 / threads=9 / lookahead_threads=2 / sliced_threads=0 / nr=0 / decimate=0 / interlaced=0 / bluray_compat=0 / constrained_intra=0 / bframes=10 / b_pyramid=2 / b_adapt=2 / b_bias=0 / direct=3 / weightb=1 / open_gop=0 / weightp=2 / keyint=250 / keyint_min=23 / scenecut=40 / intra_refresh=0 / rc_lookahead=60 / rc=2pass / mbtree=0 / bitrate=5908 / ratetol=1.0 / qcomp=0.70 / qpmin=0 / qpmax=69 / qpstep=4 / cplxblur=20.0 / qblur=0.5 / vbv_maxrate=14000 / vbv_bufsize=14000 / nal_hrd=none / filler=0 / ip_ratio=1.35 / pb_ratio=1.25 / aq=1:0.80
Language                                 : English
Default                                  : Yes
Forced                                   : No

Audio #1
ID                                       : 2
Format                                   : DTS
Format/Info                              : Digital Theater Systems
Codec ID                                 : A_DTS
Duration                                 : 2h 4mn
Bit rate mode                            : Constant
Bit rate                                 : 755 Kbps
Channel(s)                               : 6 channels
Channel positions                        : Front: L C R, Side: L R, LFE
Sampling rate                            : 48.0 KHz
Bit depth                                : 24 bits
Compression mode                         : Lossy
Stream size                              : 673 MiB (9%)
Title                                    : MVO | DTS 5.1 @ 768 kbps - CP Digital
Language                                 : Russian
Default                                  : Yes
Forced                                   : No

Audio #2
ID                                       : 3
Format                                   : AC-3
Format/Info                              : Audio Coding 3
Mode extension                           : CM (complete main)
Codec ID                                 : A_AC3
Duration                                 : 2h 4mn
Bit rate mode                            : Constant
Bit rate                                 : 640 Kbps
Channel(s)                               : 6 channels
Channel positions                        : Front: L C R, Side: L R, LFE
Sampling rate                            : 48.0 KHz
Bit depth                                : 16 bits
Compression mode                         : Lossy
Stream size                              : 571 MiB (7%)
Title                                    : AVO | DD 5.1 @ 640 kbps - Y.Serbin
Language                                 : Russian
Default                                  : No
Forced                                   : No

Audio #3
ID                                       : 4
Format                                   : AC-3
Format/Info                              : Audio Coding 3
Mode extension                           : CM (complete main)
Codec ID                                 : A_AC3
Duration                                 : 2h 4mn
Bit rate mode                            : Constant
Bit rate                                 : 640 Kbps
Channel(s)                               : 6 channels
Channel positions                        : Front: L C R, Side: L R, LFE
Sampling rate                            : 48.0 KHz
Bit depth                                : 16 bits
Compression mode                         : Lossy
Stream size                              : 571 MiB (7%)
Title                                    : AVO | DD 5.1 @ 640 kbps - D.Esarev
Language                                 : Russian
Default                                  : No
Forced                                   : No

Audio #4
ID                                       : 5
Format                                   : AC-3
Format/Info                              : Audio Coding 3
Mode extension                           : CM (complete main)
Codec ID                                 : A_AC3
Duration                                 : 2h 4mn
Bit rate mode                            : Constant
Bit rate                                 : 640 Kbps
Channel(s)                               : 6 channels
Channel positions                        : Front: L C R, Side: L R, LFE
Sampling rate                            : 48.0 KHz
Bit depth                                : 16 bits
Compression mode                         : Lossy
Stream size                              : 571 MiB (7%)
Title                                    : Original | DD 5.1 @ 640 kbps
Language                                 : English
Default                                  : No
Forced                                   : No

Text #1
ID                                       : 6
Format                                   : UTF-8
Codec ID                                 : S_TEXT/UTF8
Codec ID/Info                            : UTF-8 Plain Text
Language                                 : Russian
Default                                  : No
Forced                                   : No

Text #2
ID                                       : 7
Format                                   : UTF-8
Codec ID                                 : S_TEXT/UTF8
Codec ID/Info                            : UTF-8 Plain Text
Title                                    : SDH
Language                                 : English
Default                                  : No
Forced                                   : No

Menu
00:00:00.000                             : en:(01)00:00:00:000
00:01:03.021                             : en:(02)00:01:03:021
00:04:55.378                             : en:(03)00:04:55:378
00:07:33.327                             : en:(04)00:07:33:327
00:12:56.734                             : en:(05)00:12:56:734
00:15:22.129                             : en:(06)00:15:22:129
00:18:40.618                             : en:(07)00:18:40:618
00:24:36.224                             : en:(08)00:24:36:224
00:28:04.307                             : en:(09)00:28:04:307
00:34:13.426                             : en:(10)00:34:13:426
00:38:44.739                             : en:(11)00:38:44:739
00:45:36.400                             : en:(12)00:45:36:400
00:52:22.556                             : en:(13)00:52:22:556
00:57:42.500                             : en:(14)00:57:42:500
01:04:06.759                             : en:(15)01:04:06:759
01:09:48.934                             : en:(16)01:09:48:934
01:14:44.146                             : en:(17)01:14:44:146
01:17:54.211                             : en:(18)01:17:54:211
01:23:27.002                             : en:(19)01:23:27:002
01:24:30.064                             : en:(20)01:24:30:064
01:29:58.434                             : en:(21)01:29:58:434
01:31:08.421                             : en:(22)01:31:08:421
01:35:49.743                             : en:(23)01:35:49:743
01:42:20.592                             : en:(24)01:42:20:592
01:49:04.120                             : en:(25)01:49:04:120
01:54:26.901                             : en:(26)01:54:26:901
01:58:54.377                             : en:(27)01:58:54:377
02:00:19.378                             : en:(28)02:00:19:378

pb.wtf



Скачать Признайте меня виновным через торрент http://i66.fastpic.ru/big/2015/0928/e9/afd0a37fdf52119b7b09a9263e106ae9.png Скачать, смотреть онлайн Признайте меня виновным бесплантно в хорошем качестве Описание: Когда полиции удается арестовать 20 членов мафиозного клана Луккези, Джеки ДиНоршио по прозвищу Толстяк Ди, уже отбывающий ... 10 10 7
Info! Золотая раздача, скачанное не засчитывается.
Торрент: Зарегистрирован [2015-09-28 19:09] · скачан: 127 раз
Статус: √ проверено
Размер: 7.48 GB
Как cкачать? Как скачать Признайте меня виновным через торрент | UTorrent

% Раздел Тема Автор DL S | L
Фильмы 2006-2008 [ 1.37 GB ] Признайте меня виновным / Find Me Guilty [2006 история DVDRip] sergei_s.75 Скачать
1 | 0
Фильмы 2006-2008 [ 2.1 GB ] Признайте меня виновным / Find Me Guilty [2006 BDRip-AVC] MVO stalonе Скачать
1 | 0
Фильмы (WEB-DL 720p, 1080p) [ 4.77 GB ] Признайте меня виновным / Find Me Guilty [2006 HDTV 720р] smaster Скачать
1 | 0

28-11-2019 20:33  

Отключить всю рекламу на сайте

29-09-2015 09:22 Признайте меня виновным Скачать торрент  

Дизель обросший? Надо глянуть.pb.wtf



    Дорогой пользователь! Огромная просьба, поблагодарите релизера, оцените раздачу и оставьте свои комментарий, если Вы скачали Признайте меня виновным через торрент бесплатно!
    Комментировать посты могут только пользователи прошедшие не сложную регистрацию
    Показать сообщения:    

    Признайте меня виновным через торрент
    Скачать бесплатно Признайте меня виновным
    Признайте меня виновным скачать торрент
    Признайте меня виновным смотреть онлайн
    Cкачать фильм Признайте меня виновным бесплатно
    Признайте меня виновным скачать торрент в хорошем качестве
    Признайте меня виновным смотреть онлайн бесплатно в хорошем качестве


    Вы не можете начинать темы
    Вы не можете отвечать на сообщения
    Вы не можете редактировать свои сообщения
    Вы не можете удалять свои сообщения
    Вы не можете голосовать в опросах
    Вы не можете прикреплять файлы к сообщениям
    Вы можете скачивать файлы