Ссылка на приватное зеркало всего за 1$. Внимание количество ограничено!!!

iTunes

iTunes

iTunes

1

iTunes

iTunes

iTunes

iTunes

iTunes

30
pack

$ от Little Big

ВАЖНО

!!Акция!!

Alien_RageХит недели

RePack

Resident Evil 21

ИГРА 18+

pack

RePack

jed

!!Акция!!

Alien_Rage

RePack

fifa19

RePack

Assassins Creed: Odyssey

RePack

NEED FOR SPEED™ PAYBACK

4 сезон

9 сезон

Бесстыжие 9 сезон

Все сериалы

все сериалы на PB.wtf

RePack

FAR CRY 5
  

Мандарины / Mandariinid (Заза Урушадзе) [2013, драма, военный, WEB-DL 1080p] pb.wtf

Мандарины через торрент pb.wtf

Размер: 2.96 GB | Добавлен: 4 года 9 мес. назад | Торрент скачан:92 раза
Скачать  

30-09-2015 12:01 Мандарины Скачать торрент  


Мандарины / Mandariinid


ИНФОРМАЦИЯ:
Год выпуска:2013
Страна: Эстония, Грузия
Жанр: драма, военный
Продолжительность: 01:26:23
Перевод: Русский [лицензия]
Режиссер: Заза Урушадзе

В Ролях:


Лембит Ульфсак (Иво), Георгий Накашидзе (Ахмед), Элмо Нюганен (Маргус), Миша Месхи (Ника), Райво Трасс (Юхан), Зура Бегалишвили (Аслан), Давид Хахидзе, Джано Изория, Гия Гогишвили, Вамех Янгидзе, Алеко Бегалишвили, Темо Хуцишвили

Описание:
1992 год, Абхазия. Древнее эстонское село, расположенное в живописном месте между горами и морем, опустело - эстонцы вернулись на свою историческую родину. Остались только хозяин товарного цеха Иво, его сосед, владелец мандариновой плантации Маргус и местный доктор Юхан, который уже готов покинуть селение. Маргус также собирается уехать в Эстонию, но лишь после того, как будет собран урожай мандаринов. Война доходит до села, происходит боевое столкновение между грузинами и абхазцами. После боя Иво и Маргус находят одного оставшегося в живых чеченского наёмника по имени Ахмед, который воюет на абхазской стороне. Иво забирает Ахмеда к себе домой, чтобы его вылечить. Ночью, хороня погибших, Маргус обнаруживает, что, несмотря на тяжелое ранение, в бою выжил и один грузин - молодой парень Ника. Его тоже относят в дом Иво. Так под одной крышей оказываются бойцы противоборствующих сторон...

  • Мировая премьера:16 октября 2013

    ТЕХ.ДАННЫЕ:
    Качество: WEB-DL 1080p
    Формат: MKV
    Видео: AVC, 1914x804 (2.40:1), 4419 kbps, 24 fps, 0,120 bpp
    Аудио: русский / AC3 / 5.1 / 48 kHz / 384 kbps / 16 bit ||
    Навигация по главам: есть


    General
    Unique ID : 222427083949427008057350586268918230089 (0xA755E5ECA3E6BE1D9A0EC32E33442C49)
    Complete name : D:\Торенты\Mandariny.2013.O.WEBDL.1080p.mkv
    Format : Matroska
    Format version : Version 4 / Version 2
    File size : 2.96 GiB
    Duration : 1h 26mn
    Overall bit rate : 4 901 Kbps
    Encoded date : UTC 2015-09-29 13:16:40
    Writing application : mkvmerge v8.2.0 ('World of Adventure') 64bit
    Writing library : libebml v1.3.1 + libmatroska v1.4.2

    Video
    ID : 1
    Format : AVC
    Format/Info : Advanced Video Codec
    Format profile : High@L4.0
    Format settings, CABAC : Yes
    Format settings, ReFrames : 5 frames
    Codec ID : V_MPEG4/ISO/AVC
    Duration : 1h 26mn
    Bit rate : 4 420 Kbps
    Width : 1 914 pixels
    Height : 804 pixels
    Display aspect ratio : 2.40:1
    Frame rate : 24.000 fps
    Color space : YUV
    Chroma subsampling : 4:2:0
    Bit depth : 8 bits
    Scan type : Progressive
    Bits/(Pixel*Frame) : 0.120
    Stream size : 2.67 GiB (90%)
    Language : English
    Default : Yes
    Forced : No
    Color primaries : BT.709-5, BT.1361, IEC 61966-2-4, SMPTE RP177
    Transfer characteristics : BT.709-5, BT.1361
    Matrix coefficients : BT.709-5, BT.1361, IEC 61966-2-4 709, SMPTE RP177

    Audio
    ID : 2
    Format : AC-3
    Format/Info : Audio Coding 3
    Mode extension : CM (complete main)
    Codec ID : A_AC3
    Duration : 1h 26mn
    Bit rate mode : Constant
    Bit rate : 384 Kbps
    Channel(s) : 6 channels
    Channel positions : Front: L C R, Side: L R, LFE
    Sampling rate : 48.0 KHz
    Bit depth : 16 bits
    Compression mode : Lossy
    Stream size : 237 MiB (8%)
    Language : Russian
    Default : Yes
    Forced : No

    Menu
    00:00:00.000 : en:1
    00:06:38.000 : en:2
    00:12:14.000 : en:3
    00:18:24.000 : en:4
    00:24:18.000 : en:5
    00:30:13.000 : en:6
    00:36:25.000 : en:7
    00:42:30.000 : en:8
    00:48:35.000 : en:9
    00:54:37.000 : en:10
    01:00:25.000 : en:11
    01:05:31.000 : en:12
    01:10:33.000 : en:13
    01:15:07.000 : en:14
    01:19:44.000 : en:15
    01:24:09.000 : en:16
    Скриншоты:


    © Оформление by Ворон
    pb.wtf



  • Скачать Мандарины через торрент http://pic.kartinco.top/images/6/ordi9.jpg Скачать фильм Мандарины через торрент бесплантно в хорошем качестве Описание: 1992 год, Абхазия. Древнее эстонское село, расположенное в живописном месте между горами и морем, опустело - эстонцы вернулись на ... 8 10 13
    Info! Золотая раздача, скачанное не засчитывается.
    Торрент: Зарегистрирован [2015-09-30 12:01] · скачан: 92 раз
    Статус: √ проверено
    Размер: 2.96 GB
    Как cкачать? Как скачать Мандарины через торрент | qTorrent

    % Раздел Тема Автор DL S | L
    Фильмы 2013 [DVDrip, WEB-DLRip, HDrip] [ 744 MB ] Мандарины / Mandariinid [2013 Эстония Грузия военный BDRip-AVC от sokol_ok] [] sokol_ok Скачать
    2 | 0
    Фильмы [HD 720p, 1080p] (Хороший звук DUB, MVO) [ 2.72 GB ] Мандарины / Mandariinid [2013 военный BDRip 720p by msltel] msltel Скачать
    1 | 0
    Фильмы 2013 [DVDrip, WEB-DLRip, HDrip] [ 1.45 GB ] Мандарины / Mandariinid [2013 Эстония Грузия военный BDRip-AVC от sokol_ok] [] sokol_ok Скачать
    1 | 0
    Фильмы 2013 [DVDrip, WEB-DLRip, HDrip] [ 1.47 GB ] Мандарины / Mandariinid [2013 военный HDRip Оригинал] coc900 Скачать
    1 | 0
    Фильмы 2013 [DVDrip, WEB-DLRip, HDrip] [ 1.92 GB ] Мандарины / Mandariinid [2013 военный BDRip AVC by msltel] msltel Скачать
    1 | 0
    Фильмы 2013 [DVDrip, WEB-DLRip, HDrip] [ 1.37 GB ] Мандарины / Mandariinid [2013 военный WEB-DLRip / ] Ворон Скачать
    1 | 0

    28-11-2019 20:33  

    Отключить всю рекламу на сайте

    30-09-2015 15:39 Мандарины Скачать торрент  

    надо знать эстонский язык чтоб смотреть.pb.wtf



    30-09-2015 16:03 Мандарины Скачать торрент  

    но фильм хорошийpb.wtf



    22-01-2016 18:59 Мандарины Скачать торрент  

    rtrtrt писал(а):

    но фильм хороший

    Особенно на быстрой прокрутке)))pb.wtf



    29-01-2017 12:20 Мандарины Скачать торрент  

    ДЭСС, да да именно так и надо его смотретьpb.wtf



      Дорогой пользователь! Огромная просьба, поблагодарите релизера, оцените раздачу и оставьте свои комментарий, если Вы скачали Мандарины через торрент бесплатно! Внесите свою лепту в развитие PiratBit!
      Комментировать посты могут только пользователи прошедшие не сложную регистрацию
      Показать сообщения:    

      Мандарины через торрент
      Скачать бесплатно Мандарины
      Мандарины скачать торрент
      Мандарины смотреть онлайн
      Cкачать фильм Мандарины бесплатно
      Мандарины скачать торрент в хорошем качестве
      Мандарины смотреть онлайн бесплатно в хорошем качестве


      Вы не можете начинать темы
      Вы не можете отвечать на сообщения
      Вы не можете редактировать свои сообщения
      Вы не можете удалять свои сообщения
      Вы не можете голосовать в опросах
      Вы не можете прикреплять файлы к сообщениям
      Вы можете скачивать файлы