Ссылка на приватное зеркало нашего сайта всего за 1$. Внимание количество ограничено!!!

2 сезон

iTunes

1 сезон

1

2 сезон

2 сезон

iTunes

1 сезон

RePack

30

Ultimate

ВАЖНО

ИГРА 18+

pack

RePack

MK11
pack

Забери бонус

RePack

jed

!!Акция!!

Alien_Rage

RePack

fifa19

RePack

Assassins Creed: Odyssey

RePack

NEED FOR SPEED™ PAYBACK

4 сезон

9 сезон

Бесстыжие 9 сезон

Все сериалы

все сериалы на PB.wtf

RePack

FAR CRY 5
  

А теперь не смотри / Don't Look Now (Николас Роуг) [1973, триллер, драма, ужасы, BDRip 720p by msltel] MVO, 2 x DVO, 2 x AVO pb.wtf

А теперь не смотри через торрент pb.wtf

Размер: 5.5 GB | Добавлен: 5 лет 2 мес. назад | Торрент скачан:7 раз
Скачать  

30-09-2015 12:07 А теперь не смотри Скачать торрент  

Название: А теперь не смотри
Оригинальное название: Don't Look Now
Год выпуска: 1973
Страна: Великобритания, Италия
Жанр: триллер, драма, ужасы
Продолжительность: 01:50:22
Перевод: профессиональный многоголосый, профессиональный двухголосый, авторский

Режиссёр: Николас Роуг

В ролях: Джули Кристи, Дональд Сазерленд, Хилари Мейсон, Клелия Матания, Массимо Серато, Ренато Скарпа, Джорджо Трестини, Леопольдо Триесте, Дэвид Три, Энн Рай, Николас Сэлтер, Шарон Уильямс, Бруно Каттанео, Аделина Поэрио

Описание: Супруги Лаура и Джон Бэкстеры потеряли дочь. Чтобы забыться в собственном горе и, возможно, восстановить хрупкое равновесие в пошатнувшемся браке, Джон соглашается на работу в Венеции. Однако смена декораций для Бэкстеров оказывается временной иллюзией. Венеция, холодная, призрачная и смертоносная, не только не дает облегчения, но и приносит новые страдания и кошмарные загадки... Фильм по рассказу Дафны Дю Морье.



Качество: BDRip 720p Сравнение с исходником
Формат: MKV
Видео: MPEG-4 AVC, 5859 Кбит/с, 1280x690, 23,976 кадра/с
Аудио 1: русский, AC3, 192 kbps, 2 ch, 48 kHz [профессиональный многоголосый, HTB]
Аудио 2: русский, AC3, 192 kbps, 2 ch, 48 kHz [профессиональный двухголосый, CP-Digital]

Внешние файлы
Аудио: русский, AC3, 192 kbps, 2 ch, 48 kHz [профессиональный двухголосый, Эльром]
Аудио: русский, AC3, 192 kbps, 2 ch, 48 kHz [авторский, Алексей Михалёв]
Аудио: русский, AC3, 192 kbps, 2 ch, 48 kHz [авторский, Юрий Сербин]
Аудио: английский, AC3, 192 kbps, 1 ch, 48 kHz [оригинал]
Субтитры: русские
Субтитры: английские
Сатурн, 1975 год
Номинации (1):
Лучший фильм ужасов

Британская академия, 1974 год
Победитель (1):
Лучшая работа оператора

Номинации (6):
Лучший фильм
Лучшая мужская роль (Дональд Сазерленд)
Лучшая женская роль (Джули Кристи)
Лучший режиссер (Николас Роуг)
Лучший саундтрек
Лучший монтаж
Общее
Полное имя : D:VideoА теперь не смотри.1973.BDRip.720pА теперь не смотри.1973.AVO.rus.А.Михалёв.ac3
Формат : AC-3
Формат/Информация : Audio Coding 3
Размер файла : 152 Мбайт
Продолжительность : 1 ч. 50 м.
Режим общего битрейта : Постоянный
Общий поток : 192 Кбит/сек

Аудио
Формат : AC-3
Формат/Информация : Audio Coding 3
Расширение режима : CM (complete main)
Параметр Endianness формата : Big
Продолжительность : 1 ч. 50 м.
Вид битрейта : Постоянный
Битрейт : 192 Кбит/сек
Каналы : 2 канала
Расположение каналов : Front: L R
Частота : 48,0 КГц
Метод сжатия : С потерями
Размер потока : 152 Мбайт (100%)

Общее
Полное имя : D:VideoА теперь не смотри.1973.BDRip.720pА теперь не смотри.1973.AVO.rus.Ю.Сербин.ac3
Формат : AC-3
Формат/Информация : Audio Coding 3
Размер файла : 152 Мбайт
Продолжительность : 1 ч. 50 м.
Режим общего битрейта : Постоянный
Общий поток : 192 Кбит/сек

Аудио
Формат : AC-3
Формат/Информация : Audio Coding 3
Расширение режима : CM (complete main)
Параметр Endianness формата : Big
Продолжительность : 1 ч. 50 м.
Вид битрейта : Постоянный
Битрейт : 192 Кбит/сек
Каналы : 2 канала
Расположение каналов : Front: L R
Частота : 48,0 КГц
Метод сжатия : С потерями
Размер потока : 152 Мбайт (100%)

Общее
Уникальный идентификатор : 233953767113891813605091671107553915875 (0xB001DB4815D569748292AAEB165EF3E3)
Полное имя : D:VideoА теперь не смотри.1973.BDRip.720pА теперь не смотри.1973.BDRip.720p.mkv
Формат : Matroska
Версия формата : Version 4 / Version 2
Размер файла : 4,91 Гбайт
Продолжительность : 1 ч. 50 м.
Общий поток : 6370 Кбит/сек
Название фильма : BDRip -- STarankov
Дата кодирования : UTC 2015-09-30 06:53:30
Программа кодирования : mkvmerge v8.2.0 ('World of Adventure') 64bit
Библиотека кодирования : libebml v1.3.1 + libmatroska v1.4.2
DURATION : 01:50:22.784000000
NUMBER_OF_FRAMES : 206962
NUMBER_OF_BYTES : 158946816
_STATISTICS_WRITING_APP : mkvmerge v8.2.0 ('World of Adventure') 64bit
_STATISTICS_WRITING_DATE_UTC : 2015-09-30 06:53:30
_STATISTICS_TAGS : BPS DURATION NUMBER_OF_FRAMES NUMBER_OF_BYTES

Видео
Идентификатор : 1
Формат : AVC
Формат/Информация : Advanced Video Codec
Профиль формата : High@L4.1
Параметр CABAC формата : Да
Параметр ReFrames формата : 9 кадров
Идентификатор кодека : V_MPEG4/ISO/AVC
Продолжительность : 1 ч. 50 м.
Битрейт : 5859 Кбит/сек
Ширина : 1280 пикселей
Высота : 690 пикселей
Соотношение сторон : 1,85:1
Режим частоты кадров : Постоянный
Частота кадров : 23,976 кадра/сек
Цветовое пространство : YUV
Субдискретизация насыщенности : 4:2:0
Битовая глубина : 8 бит
Тип развёртки : Прогрессивная
Бит/(Пиксели*Кадры) : 0.277
Размер потока : 4,52 Гбайт (92%)
Библиотека кодирования : x264 core 146 r2538 121396c
Настройки программы : cabac=1 / ref=9 / deblock=1:-3:-3 / analyse=0x3:0x113 / me=umh / subme=10 / psy=1 / psy_rd=1.00:0.15 / mixed_ref=1 / me_range=32 / chroma_me=1 / trellis=2 / 8x8dct=1 / cqm=0 / deadzone=21,11 / fast_pskip=1 / chroma_qp_offset=-3 / threads=6 / lookahead_threads=1 / sliced_threads=0 / nr=0 / decimate=1 / interlaced=0 / bluray_compat=0 / constrained_intra=0 / bframes=13 / b_pyramid=2 / b_adapt=2 / b_bias=0 / direct=1 / weightb=1 / open_gop=0 / weightp=2 / keyint=230 / keyint_min=23 / scenecut=40 / intra_refresh=0 / rc_lookahead=40 / rc=crf / mbtree=0 / crf=22.0 / qcomp=0.60 / qpmin=0 / qpmax=69 / qpstep=4 / vbv_maxrate=40000 / vbv_bufsize=50000 / crf_max=0.0 / nal_hrd=none / filler=0 / ip_ratio=1.40 / pb_ratio=1.30 / aq=1:1.00
Язык : English
Default : Да
Forced : Нет
DURATION : 01:50:22.783000000
NUMBER_OF_FRAMES : 158788
NUMBER_OF_BYTES : 4953864950
_STATISTICS_WRITING_APP : mkvmerge v8.2.0 ('World of Adventure') 64bit
_STATISTICS_WRITING_DATE_UTC : 2015-09-30 06:53:30
_STATISTICS_TAGS : BPS DURATION NUMBER_OF_FRAMES NUMBER_OF_BYTES

Аудио #1
Идентификатор : 2
Формат : AC-3
Формат/Информация : Audio Coding 3
Расширение режима : CM (complete main)
Параметр Endianness формата : Big
Идентификатор кодека : A_AC3
Продолжительность : 1 ч. 50 м.
Вид битрейта : Постоянный
Битрейт : 192 Кбит/сек
Каналы : 2 канала
Расположение каналов : Front: L R
Частота : 48,0 КГц
Метод сжатия : С потерями
Размер потока : 152 Мбайт (3%)
Заголовок : MVO (HTB)
Язык : Russian
Default : Да
Forced : Нет

Аудио #2
Идентификатор : 3
Формат : AC-3
Формат/Информация : Audio Coding 3
Расширение режима : CM (complete main)
Параметр Endianness формата : Big
Идентификатор кодека : A_AC3
Продолжительность : 1 ч. 50 м.
Вид битрейта : Постоянный
Битрейт : 192 Кбит/сек
Каналы : 2 канала
Расположение каналов : Front: L R
Частота : 48,0 КГц
Метод сжатия : С потерями
Размер потока : 152 Мбайт (3%)
Заголовок : DVO (CP-Digital)
Язык : Russian
Default : Нет
Forced : Нет

Общее
Полное имя : D:VideoА теперь не смотри.1973.BDRip.720pА теперь не смотри.1973.DVO.rus.Эльром.ac3
Формат : AC-3
Формат/Информация : Audio Coding 3
Размер файла : 152 Мбайт
Продолжительность : 1 ч. 50 м.
Режим общего битрейта : Постоянный
Общий поток : 192 Кбит/сек

Аудио
Формат : AC-3
Формат/Информация : Audio Coding 3
Расширение режима : CM (complete main)
Параметр Endianness формата : Big
Продолжительность : 1 ч. 50 м.
Вид битрейта : Постоянный
Битрейт : 192 Кбит/сек
Каналы : 2 канала
Расположение каналов : Front: L R
Частота : 48,0 КГц
Метод сжатия : С потерями
Размер потока : 152 Мбайт (100%)

Общее
Полное имя : D:VideoА теперь не смотри.1973.BDRip.720pА теперь не смотри.1973.eng.srt
Формат : SubRip
Размер файла : 68,3 Кбайт

Текст
Формат : SubRip
Метод сжатия : Без потерь

Общее
Полное имя : D:VideoА теперь не смотри.1973.BDRip.720pА теперь не смотри.1973.Original.eng.ac3
Формат : AC-3
Формат/Информация : Audio Coding 3
Размер файла : 152 Мбайт
Продолжительность : 1 ч. 50 м.
Режим общего битрейта : Постоянный
Общий поток : 192 Кбит/сек

Аудио
Формат : AC-3
Формат/Информация : Audio Coding 3
Расширение режима : CM (complete main)
Параметр Endianness формата : Big
Продолжительность : 1 ч. 50 м.
Вид битрейта : Постоянный
Битрейт : 192 Кбит/сек
Каналы : 1 канал
Расположение каналов : Front: C
Частота : 48,0 КГц
Метод сжатия : С потерями
Размер потока : 152 Мбайт (100%)

Общее
Полное имя : D:VideoА теперь не смотри.1973.BDRip.720pА теперь не смотри.1973.rus.srt
Формат : SubRip
Размер файла : 77,3 Кбайт

Текст
Формат : SubRip
Метод сжатия : Без потерь
pb.wtf



Скачать А теперь не смотри через торрент http://i66.fastpic.ru/big/2015/0929/c9/b427041ebb61953ca3b3bafe2ede12c9.jpg Скачать фильм А теперь не смотри через торрент бесплантно в хорошем качестве Описание: Супруги Лаура и Джон Бэкстеры потеряли дочь. Чтобы забыться в собственном горе и, возможно, восстановить хрупкое равновесие в ... 10 10 1
Info! Серебряная раздача, засчитывается только 50% скачанного.
Торрент: Зарегистрирован [2015-09-30 12:07] · скачан: 7 раз
Статус: √ проверено
Размер: 5.5 GB
Как cкачать? Как скачать А теперь не смотри через торрент | qTorrent

28-11-2019 20:33  

Отключить всю рекламу на сайте

04-03-2020 05:54 А теперь не смотри Скачать торрент  

Топик был перенесен из форума Фильмы [HD 720p, 1080p] (Хороший звук DUB, MVO) в форум Для поглощённых раздач

Причина переноса: А теперь не смотри / Don't Look Now
bober100pb.wtf



    Дорогой пользователь! Огромная просьба, поблагодарите релизера, оцените раздачу и оставьте свои комментарий, если Вы скачали А теперь не смотри через торрент бесплатно! Внесите свою лепту в развитие PiratBit!
    Комментировать посты могут только пользователи прошедшие не сложную регистрацию
    Показать сообщения:    

    А теперь не смотри через торрент
    Скачать бесплатно А теперь не смотри
    А теперь не смотри скачать торрент
    А теперь не смотри смотреть онлайн
    Cкачать фильм А теперь не смотри бесплатно
    А теперь не смотри скачать торрент в хорошем качестве
    А теперь не смотри смотреть онлайн бесплатно в хорошем качестве


    Вы не можете начинать темы
    Вы не можете отвечать на сообщения
    Вы не можете редактировать свои сообщения
    Вы не можете удалять свои сообщения
    Вы не можете голосовать в опросах
    Вы не можете прикреплять файлы к сообщениям
    Вы можете скачивать файлы