новый адрес
Ссылка на приватное зеркало всего за 1$. Внимание количество ограничено!!!

iTunes

1+1

iTunes

мы

WEB-DL

1

iTunes

Чернобыль

iTunes

Ральф против интернета

Лицензия

ПШазам

Лицензия

Оно 2

Лицензия

30
pack

Вам бонус

ВАЖНО

!!Акция!!

Alien_RageХит недели

RePack

Resident Evil 21

ИГРА 18+

pack

RePack

jed

!!Акция!!

Alien_Rage

RePack

fifa19

RePack

Assassins Creed: Odyssey

RePack

NEED FOR SPEED™ PAYBACK

3 сезон

9 сезон

Бесстыжие 9 сезон

Все сериалы

все сериалы на PB.wtf

RePack

FAR CRY 5
Ребята, катастрофически не хватает 1900р. для оплаты серверов за Октябрь (всвязи с блокировками трафик упал в 3 раза), 1-2р., выручайте.
  

Жилец / The Lodger (Альфред Хичкок) [1927, триллер, драма, криминал, детектив, BDRip AVC by msltel] Немое кино pb.wtf

Жилец через торрент pb.wtf

Размер: 1.74 GB | Добавлен: 4 года 2 мес. назад | Торрент скачан:10 раз
Скачать  

30-09-2015 13:04 Жилец Скачать торрент  

Название: Жилец
Оригинальное название: The Lodger
Год выпуска: 1927
Страна: Великобритания
Жанр: триллер, драма, криминал, детектив
Продолжительность: 01:30:44
Перевод: нет (немое кино)

Режиссёр: Альфред Хичкок

В ролях: Мари Олт, Артур Чесни, Джун, Малкольм Кин, Айвор Новелло, Реджинальд Гардинер, Ив Грэй, Альфред Хичкок

Описание: В Лондоне объявился новый серийный убийца, нападающий по ночам на молодых блондинок и оставляющий на месте преступления клочки бумаги с подписью «Мститель». В то время, когда весь город взбудоражен этими событиями, в одном из домов появляется мужчина с признаками нервного расстройства и снимает там комнату. Владельцы дома, их дочь Дейзи и её возлюбленный Джо (полицейский, расследующий серию убийств) обращают внимание на странное поведение нового жильца...Фильм по произведению Мари Беллок Лаундес.



Качество: BDRip AVC Сравнение с исходником
Формат: MKV
Видео: MPEG-4 AVC, 2054 Кбит/с, 768x576, 23,976 кадра/с
Аудио 1: музыкальное сопровождение, AC3, 192 kbps, 2 ch, 48 kHz, вариант 1
Аудио 2: музыкальное сопровождение, AC3, 448 kbps, 6 ch, 48 kHz, вариант 2
Субтитры: русские
Общее
Уникальный идентификатор : 197015432397297571392772532892512500472 (0x9437CAC57EBC37FF8EC0C8580C833AF8)
Полное имя : D:VideoЖилец.1927.BDRip.AVC.mkv
Формат : Matroska
Версия формата : Version 4 / Version 2
Размер файла : 1,74 Гбайт
Продолжительность : 1 ч. 30 м.
Общий поток : 2749 Кбит/сек
Название фильма : BDRip -- STarankov
Дата кодирования : UTC 2015-09-30 10:48:18
Программа кодирования : mkvmerge v8.2.0 ('World of Adventure') 64bit
Библиотека кодирования : libebml v1.3.1 + libmatroska v1.4.2
DURATION : 01:29:06.161000000
NUMBER_OF_FRAMES : 142
NUMBER_OF_BYTES : 10211
_STATISTICS_WRITING_APP : mkvmerge v8.2.0 ('World of Adventure') 64bit
_STATISTICS_WRITING_DATE_UTC : 2015-09-30 10:48:18
_STATISTICS_TAGS : BPS DURATION NUMBER_OF_FRAMES NUMBER_OF_BYTES

Видео
Идентификатор : 1
Формат : AVC
Формат/Информация : Advanced Video Codec
Профиль формата : High@L4.1
Параметр CABAC формата : Да
Параметр ReFrames формата : 9 кадров
Идентификатор кодека : V_MPEG4/ISO/AVC
Продолжительность : 1 ч. 30 м.
Битрейт : 2054 Кбит/сек
Ширина : 768 пикселей
Высота : 576 пикселей
Соотношение сторон : 4:3
Режим частоты кадров : Постоянный
Частота кадров : 24,000 кадра/сек
Цветовое пространство : YUV
Субдискретизация насыщенности : 4:2:0
Битовая глубина : 8 бит
Тип развёртки : Прогрессивная
Бит/(Пиксели*Кадры) : 0.193
Размер потока : 1,30 Гбайт (75%)
Библиотека кодирования : x264 core 146 r2538 121396c
Настройки программы : cabac=1 / ref=9 / deblock=1:-3:-3 / analyse=0x3:0x113 / me=umh / subme=10 / psy=1 / psy_rd=1.00:0.15 / mixed_ref=1 / me_range=32 / chroma_me=1 / trellis=2 / 8x8dct=1 / cqm=0 / deadzone=21,11 / fast_pskip=1 / chroma_qp_offset=-3 / threads=6 / lookahead_threads=1 / sliced_threads=0 / nr=0 / decimate=1 / interlaced=0 / bluray_compat=0 / constrained_intra=0 / bframes=12 / b_pyramid=2 / b_adapt=2 / b_bias=0 / direct=1 / weightb=1 / open_gop=0 / weightp=2 / keyint=230 / keyint_min=23 / scenecut=40 / intra_refresh=0 / rc_lookahead=40 / rc=crf / mbtree=0 / crf=20.5 / qcomp=0.60 / qpmin=0 / qpmax=69 / qpstep=4 / vbv_maxrate=40000 / vbv_bufsize=50000 / crf_max=0.0 / nal_hrd=none / filler=0 / ip_ratio=1.40 / pb_ratio=1.30 / aq=1:1.00
Язык : English
Default : Да
Forced : Нет
DURATION : 01:30:44.334000000
NUMBER_OF_FRAMES : 130664
NUMBER_OF_BYTES : 1438762132
_STATISTICS_WRITING_APP : mkvmerge v8.2.0 ('World of Adventure') 64bit
_STATISTICS_WRITING_DATE_UTC : 2015-09-30 10:48:18
_STATISTICS_TAGS : BPS DURATION NUMBER_OF_FRAMES NUMBER_OF_BYTES

Аудио #1
Идентификатор : 2
Формат : AC-3
Формат/Информация : Audio Coding 3
Расширение режима : CM (complete main)
Параметр Endianness формата : Big
Идентификатор кодека : A_AC3
Продолжительность : 1 ч. 30 м.
Вид битрейта : Постоянный
Битрейт : 192 Кбит/сек
Каналы : 2 канала
Расположение каналов : Front: L R
Частота : 48,0 КГц
Метод сжатия : С потерями
Размер потока : 125 Мбайт (7%)
Заголовок : музыка
Default : Да
Forced : Нет

Аудио #2
Идентификатор : 3
Формат : AC-3
Формат/Информация : Audio Coding 3
Расширение режима : CM (complete main)
Параметр Endianness формата : Big
Идентификатор кодека : A_AC3
Продолжительность : 1 ч. 30 м.
Вид битрейта : Постоянный
Битрейт : 448 Кбит/сек
Каналы : 6 каналов
Расположение каналов : Front: L C R, Side: L R, LFE
Частота : 48,0 КГц
Метод сжатия : С потерями
Размер потока : 291 Мбайт (16%)
Заголовок : музыка
Default : Нет
Forced : Нет

Текст
Идентификатор : 4
Формат : UTF-8
Идентификатор кодека : S_TEXT/UTF8
Идентификатор кодека/Информация : UTF-8 Plain Text
Заголовок : русский
Язык : Russian
Default : Да
Forced : Да
pb.wtf



Скачать Жилец через торрент http://i66.fastpic.ru/big/2015/0930/9a/aa0d6e88a8b6116cd2c255eda8ed9b9a.jpg Скачать фильм Жилец через торрент бесплантно в хорошем качестве Описание: В Лондоне объявился новый серийный убийца, нападающий по ночам на молодых блондинок и оставляющий на месте преступления клочки ... 10 10 1
Торрент: Зарегистрирован [2015-09-30 13:04] · скачан: 10 раз
Статус: √ проверено
Размер: 1.74 GB
Как cкачать? Как скачать Жилец через торрент | qTorrent

% Раздел Тема Автор DL S | L
Фильмы [HD 720p, 1080p] (Хороший звук DUB, MVO) [ 7.12 GB ] Жилец / The Lodger [1927 BDRip 1080p by msltel] Немое кино msltel Скачать
1 | 0
Фильмы [HD 720p, 1080p] (Хороший звук DUB, MVO) [ 2.98 GB ] Жилец / The Lodger [1927 BDRip 720p by msltel] Немое кино msltel Скачать
1 | 0

28-11-2019 20:33  

Отключить всю рекламу на сайте

    Дорогой пользователь! Огромная просьба, поблагодарите релизера, оцените раздачу и оставьте свои комментарий, если Вы скачали Жилец через торрент бесплатно! Внесите свою лепту в развитие PiratBit!
    Комментировать посты могут только пользователи прошедшие не сложную регистрацию
    Показать сообщения:    

    Жилец через торрент
    Скачать бесплатно Жилец
    Жилец скачать торрент
    Жилец смотреть онлайн
    Cкачать фильм Жилец бесплатно
    Жилец скачать торрент в хорошем качестве
    Жилец смотреть онлайн бесплатно в хорошем качестве


    Вы не можете начинать темы
    Вы не можете отвечать на сообщения
    Вы не можете редактировать свои сообщения
    Вы не можете удалять свои сообщения
    Вы не можете голосовать в опросах
    Вы не можете прикреплять файлы к сообщениям
    Вы можете скачивать файлы