Всегда рабочее зеркало просто перед .vidak.icu напиши любое слово или цифру, Пример http://k22.vidak.icu

>

7.4

iTunes

7.4

2 сезон

6.6

iTunes

1

7.4

2 сезон

7.2

iTunes

6.0

MVO

13

6.1

iTunes

8.3

Пиратка

30

ULTIMATE

pack

9.9

Лицензия

ВАЖНО

ИГРА 18+

pack

7.3

RePack

MK11

7.7

RePack

jed

7.8

RePack

fifa19

8.5

RePack

RDR2

RePack

NEED FOR SPEED™ PAYBACK

1 сезон

9 сезон

Бесстыжие 9 сезон

Все сериалы

все сериалы на PB.wtf

RePack

FAR CRY 5

Anonymous, добрый день, мы катастрофически не успеваем собрать деньги на оплату серверов, помогите нам пожалуйста 5,10,15р., для нас важна любая помощь . В качестве благодарности мы отключим Вам всю рекламу на сайте (укажите свой ник в строку Ваше имя)!

×
  
Magnet ссылка

Ночные движения / Night Moves (Келли Райхардт) [2013, триллер, драма, BDRip 720p, Авторский (одноголосый)[Чадов] pb.wtf

Ночные движения через торрент pb.wtf

Размер: 6.58 GB | Добавлен: 6 лет 3 мес. назад | Торрент скачан:8 раз
Смотреть онлайн Ночные движения | Скачать    Ребята, помогите собрать деньги на оплату серверов!!!

30-09-2015 15:10 Ночные движения Скачать торрент  


Ночные движения / Night Moves


ИНФОРМАЦИЯ:
Год выпуска:2013
Страна: США
Жанр: триллер, драма
Продолжительность: 01:52:37
Перевод: Авторский (одноголосый)[Чадов]
Субтитры: русские (RUS Psychotechnic SRT), английские (ENG SDH SRT),
Режиссер: Келли Райхардт

В Ролях:


Джесси Айзенберг (Josh), Дакота Фаннинг (Dena), Питер Сарсгаард (Harmon), Алиа Шокат (Surprise), Логан Миллер (Dylan), Кай Леннокс (Sean), Кэтрин Уотерстон (Anne), Джеймс ЛеГрос (Feed Factory Clerk), Autumn Nidalmia (Mable), Бэрри Дель Шерман (Corser), Jason Rojas (Activist 1), Клара Мамет (Activist Filmmaker)

Описание:
Фильм расскажет о трех защитниках окружающей среды, которые медленно, но верно приходят к намерению взорвать дамбу.

  • Мировая премьера:31 августа 2013

    ТЕХ.ДАННЫЕ:
    Качество: BDRip 720p
    Формат: MKV
    Видео: AVC, 1280x720 (16:9), 7111 kbps, 23,976 fps, 0,322 bpp
    Аудио №1: русский / AC3 / 5.1 / 48 kHz / 448 kbps / 16 bit ||
    Аудио №2: английский / AC3 / 5.1 / 48 kHz / 640 kbps / 16 bit
    Навигация по главам: есть


    General
    Unique ID : 200745415008687524083481331712721378439 (0x9706291CD7F1E6CEB328CCD97FCF5C87)
    Complete name : D:\Торенты\Night.Moves.2013.720p.BDRip.x264.DD.SRT-VietHD.mkv
    Format : Matroska
    Format version : Version 4 / Version 2
    File size : 6.58 GiB
    Duration : 1h 52mn
    Overall bit rate : 8 366 Kbps
    Movie name : Night Moves (2013) 720p BDRip by VietHD
    Encoded date : UTC 2015-09-30 13:08:43
    Writing application : mkvmerge v7.8.0 ('River Man') 64bit built on Mar 27 2015 16:31:37
    Writing library : libebml v1.3.1 + libmatroska v1.4.2

    Video
    ID : 1
    Format : AVC
    Format/Info : Advanced Video Codec
    Format profile : High@L4.1
    Format settings, CABAC : Yes
    Format settings, ReFrames : 9 frames
    Codec ID : V_MPEG4/ISO/AVC
    Duration : 1h 52mn
    Bit rate : 7 111 Kbps
    Width : 1 280 pixels
    Height : 720 pixels
    Display aspect ratio : 16:9
    Frame rate : 23.976 fps
    Color space : YUV
    Chroma subsampling : 4:2:0
    Bit depth : 8 bits
    Scan type : Progressive
    Bits/(Pixel*Frame) : 0.322
    Stream size : 5.59 GiB (85%)
    Title : 1280x720, 23.976 fps, x264 ~7275 kbps
    Writing library : x264 core 142 r2453kMod ea0ca51
    Encoding settings : cabac=1 / ref=9 / deblock=1:-3:-3 / analyse=0x3:0x133 / me=umh / subme=10 / psy=1 / fade_compensate=0.00 / psy_rd=1.50:0.00 / mixed_ref=1 / me_range=24 / chroma_me=1 / trellis=2 / 8x8dct=1 / cqm=0 / deadzone=21,11 / fast_pskip=1 / chroma_qp_offset=-2 / threads=12 / lookahead_threads=3 / sliced_threads=0 / nr=0 / decimate=1 / interlaced=0 / bluray_compat=0 / constrained_intra=0 / fgo=0 / bframes=11 / b_pyramid=2 / b_adapt=2 / b_bias=0 / direct=3 / weightb=1 / open_gop=0 / weightp=2 / keyint=250 / keyint_min=23 / scenecut=40 / intra_refresh=0 / rc=crf / mbtree=0 / crf=17.5000 / qcomp=0.65 / qpmin=0 / qpmax=69 / qpstep=4 / ip_ratio=1.30 / pb_ratio=1.20 / aq=3:0.70
    Language : English
    Default : Yes
    Forced : No
    Matrix coefficients : BT.709-5, BT.1361, IEC 61966-2-4 709, SMPTE RP177

    Audio #1
    ID : 2
    Format : AC-3
    Format/Info : Audio Coding 3
    Mode extension : CM (complete main)
    Codec ID : A_AC3
    Duration : 1h 52mn
    Bit rate mode : Constant
    Bit rate : 448 Kbps
    Channel(s) : 6 channels
    Channel positions : Front: L C R, Side: L R, LFE
    Sampling rate : 48.0 KHz
    Bit depth : 16 bits
    Compression mode : Lossy
    Stream size : 361 MiB (5%)
    Title : RUS VO М.Чадов DD 5.1, 48 kHz, 448 kbps
    Language : Russian
    Default : Yes
    Forced : No

    Audio #2
    ID : 3
    Format : AC-3
    Format/Info : Audio Coding 3
    Mode extension : CM (complete main)
    Codec ID : A_AC3
    Duration : 1h 52mn
    Bit rate mode : Constant
    Bit rate : 640 Kbps
    Channel(s) : 6 channels
    Channel positions : Front: L C R, Side: L R, LFE
    Sampling rate : 48.0 KHz
    Bit depth : 16 bits
    Compression mode : Lossy
    Stream size : 516 MiB (8%)
    Title : ENG DD 5.1, 48 kHz, 640 kbps
    Language : English
    Default : No
    Forced : No

    Text #1
    ID : 4
    Format : UTF-8
    Codec ID : S_TEXT/UTF8
    Codec ID/Info : UTF-8 Plain Text
    Title : RUS Psychotechnic SRT
    Language : Russian
    Default : No
    Forced : No

    Text #2
    ID : 5
    Format : UTF-8
    Codec ID : S_TEXT/UTF8
    Codec ID/Info : UTF-8 Plain Text
    Title : ENG SDH SRT
    Language : English
    Default : No
    Forced : No

    Menu
    00:00:00.000 : en:Small Plans
    00:09:59.307 : en:The Deal
    00:22:01.195 : en:500 lbs of Fertilizer
    00:32:47.382 : en:Heading Upstream
    00:43:58.135 : en:Target In Place
    00:57:21.855 : en:The Getaway
    01:03:55.248 : en:Back to Normal
    01:13:50.509 : en:Lost Camper
    01:22:36.243 : en:People Talking
    01:29:44.379 : en:Off The Deep End
    01:41:34.088 : en:Disappear
    01:47:57.471 : en:Credits
    Скриншоты:


    © Оформление by Ворон
    pb.wtf



  • Скачать Ночные движения через торрент https://pic1.kartinco.top/images/61/ordi9.jpg Скачать, смотреть онлайн Ночные движения бесплантно в хорошем качестве Описание: Фильм расскажет о трех защитниках окружающей среды, которые медленно, но верно приходят к намерению взорвать дамбу. Мировая ... 10 10 2
    Торрент: Зарегистрирован [2015-09-30 15:10] · скачан: 8 раз
    Статус: √ проверено
    Размер: 6.58 GB
    Как cкачать? Как скачать Ночные движения через торрент | UTorrent

    % Раздел Тема Автор DL S | L
    Фильмы с авторской озвучкой [ 2.05 GB ] Ночные движения / Night Moves [2013 HDRip Авторский [Чадов] Ворон Скачать
    1 | 0

    28-11-2019 20:33  

    Отключить всю рекламу на сайте

      Дорогой пользователь! Огромная просьба, поблагодарите релизера, оцените раздачу и оставьте свои комментарий, если Вы скачали Ночные движения через торрент бесплатно!
      Комментировать посты могут только пользователи прошедшие не сложную регистрацию
      Показать сообщения:    

      Ночные движения через торрент
      Скачать бесплатно Ночные движения
      Ночные движения скачать торрент
      Ночные движения смотреть онлайн
      Cкачать фильм Ночные движения бесплатно
      Ночные движения скачать торрент в хорошем качестве
      Ночные движения смотреть онлайн бесплатно в хорошем качестве


      Вы не можете начинать темы
      Вы не можете отвечать на сообщения
      Вы не можете редактировать свои сообщения
      Вы не можете удалять свои сообщения
      Вы не можете голосовать в опросах
      Вы не можете прикреплять файлы к сообщениям
      Вы можете скачивать файлы