2 сезон

iTunes

1 сезон

1

iTunes

iTunes

iTunes

1 сезон

RePack

30

ИГРА 18+

pack

ВАЖНО

!!Акция!!

Alien_RageХит недели

RePack

MK11
pack

Забери бонус

RePack

jed

!!Акция!!

Alien_Rage

RePack

fifa19

RePack

Assassins Creed: Odyssey

RePack

NEED FOR SPEED™ PAYBACK

4 сезон

9 сезон

Бесстыжие 9 сезон

Все сериалы

все сериалы на PB.wtf

RePack

FAR CRY 5
  

Предел риска / Margin Call (Джей Си Чендор ) [2011, триллер, драма, BDRip 1080p от _denis_100 / NNNB] Дублированный - [Лицензия] pb.wtf

Предел риска через торрент pb.wtf

Раздают: 1 [ 0 KB/s ]
Размер: 7.76 GB | Добавлен: 5 лет 1 мес. назад | Торрент скачан:174 раза
Скачать  

30-09-2015 15:49 Предел риска Скачать торрент  

Предел риска / Margin Call
«Как спасти деньги?»


Год выпуска: 2011
Страна: США
Жанр: триллер, драма
Продолжительность: 01:47:38
Перевод: Дублированный - [Лицензия]
Субтитры: русские, английские, английские (SDH)
Режиссер: Джей Си Чендор
В ролях: Кевин Спейси , Пол Беттани , Джереми Айронс , Закари Куинто , Пенн Бэджли , Саймон Бейкер , Мэри МакДоннелл , Деми Мур , Стэнли Туччи , Аасиф Мандви , Эшли Уильямс , Сьюзэн Блэкуэлл
Описание:
Сентябрь 2008 года. Мировой экономический кризис уже начался, но Америка еще не знает, какая катастрофа ждет впереди, и только группа топ-менеджеров на Уолл-Стрит ищет рецепт спасения. Это были самые страшные часы в их жизни...
Сотрудник одного из крупнейших инвестиционных банков с помощью новейшей программы рыночного анализа получает ошеломляющий прогноз - акции упадут, рынок рухнет, банк потеряет все. Утром следующего дня он попадает под сокращение и перед уходом передает флэшку с опасной информацией своему бывшему помощнику. К вечеру лучшие аналитики банка, проверив эти вычисления, осознали ужасную перспективу: крах неминуем. Теперь они стоят перед выбором: начать срочный сброс акций, что оставит и крупных акционеров во всем мире, и миллионы рядовых вкладчиков ни с чем - или ждать развития событий, что чревато потерей вообще всего. Решать нужно здесь и сейчас. На кону - огромные деньги и будущее каждого. В эту ночь у риска нет предела...

R - Лицам до 17 лет обязательно присутствие взрослого
Номинация на Оскар-2012 за Лучший сценарий
Качество: BDRip 1080p
Контейнер (Расширение): MKV
Видео кодек: AVC
Аудио кодек: AC3
Видео: 1920x1080, 9090 Кбит/сек, 23,976 кадр/сек, 0,183 Бит/[Пиксели*Кадры]
Аудио №1: русский / AC3 / 5.1 / 48 kHz / 640 kbps / 16 bit |Дублированный|
Аудио №2: английский / AC3 / 5.1 / 48 kHz / 640 kbps / 16 bit
Навигация по главам(Чаптеры): естьАвтор рипа: Сообщество:
  • Роль Джона Талда изначально была предложена сэру Бену Кингсли, но тот отказался из-за занятости на других проектах и уступил место Джереми Айронсу. В свою очередь, Карла Гуджино должна была сыграть Сару Робинсон, но в последний момент отказалась от роли и была заменена Дэми Мур. Также в участии в фильме были заинтересованы Билли Крудап и Тим Роббинс, но они также не нашли свободного места в графике.
  • Код:

    Format                                   : Matroska
    Format version                           : Version 2
    File size                                : 7.76 GiB
    Duration                                 : 1h 47mn
    Overall bit rate                         : 10.3 Mbps
    Movie name                               : Predel riska.(2011).BDRip.1080p.[denis100]
    Encoded date                             : UTC 2015-09-29 21:06:23
    Writing application                      : mkvmerge v5.8.0 ('No Sleep / Pillow') built on Sep  2 2012 15:37:04
    Writing library                          : libebml v1.2.3 + libmatroska v1.3.0

    Video
    ID                                       : 1
    Format                                   : AVC
    Format/Info                              : Advanced Video Codec
    Format profile                           : High@L4.1
    Format settings, CABAC                   : Yes
    Format settings, ReFrames                : 4 frames
    Codec ID                                 : V_MPEG4/ISO/AVC
    Duration                                 : 1h 47mn
    Bit rate                                 : 9 090 Kbps
    Width                                    : 1 920 pixels
    Height                                   : 1 080 pixels
    Display aspect ratio                     : 16:9
    Frame rate                               : 23.976 fps
    Color space                              : YUV
    Chroma subsampling                       : 4:2:0
    Bit depth                                : 8 bits
    Scan type                                : Progressive
    Bits/(Pixel*Frame)                       : 0.183
    Stream size                              : 6.64 GiB (86%)
    Title                                    : Predel riska.(2011).BDRip.1080p.[denis100]
    Writing library                          : x264 core 148 r2597 e86f3a1
    Encoding settings                        : cabac=1 / ref=4 / deblock=1:-3:-3 / analyse=0x3:0x133 / me=umh / subme=11 / psy=1 / psy_rd=1.00:0.00 / mixed_ref=1 / me_range=32 / chroma_me=1 / trellis=2 / 8x8dct=1 / cqm=0 / deadzone=21,11 / fast_pskip=0 / chroma_qp_offset=-2 / threads=6 / lookahead_threads=1 / sliced_threads=0 / nr=0 / decimate=1 / interlaced=0 / bluray_compat=0 / constrained_intra=0 / bframes=9 / b_pyramid=2 / b_adapt=2 / b_bias=0 / direct=3 / weightb=1 / open_gop=0 / weightp=2 / keyint=240 / keyint_min=23 / scenecut=40 / intra_refresh=0 / rc=2pass / mbtree=0 / bitrate=9090 / ratetol=1.0 / qcomp=0.60 / qpmin=0 / qpmax=69 / qpstep=4 / cplxblur=20.0 / qblur=0.5 / ip_ratio=1.40 / pb_ratio=1.30 / aq=2:1.00
    Language                                 : English
    Default                                  : Yes
    Forced                                   : No

    Audio #1
    ID                                       : 2
    Format                                   : AC-3
    Format/Info                              : Audio Coding 3
    Mode extension                           : CM (complete main)
    Codec ID                                 : A_AC3
    Duration                                 : 1h 47mn
    Bit rate mode                            : Constant
    Bit rate                                 : 640 Kbps
    Channel(s)                               : 6 channels
    Channel positions                        : Front: L C R, Side: L R, LFE
    Sampling rate                            : 48.0 KHz
    Bit depth                                : 16 bits
    Compression mode                         : Lossy
    Stream size                              : 493 MiB (6%)
    Title                                    : Дублированный
    Language                                 : Russian
    Default                                  : Yes
    Forced                                   : No

    Audio #2
    ID                                       : 3
    Format                                   : AC-3
    Format/Info                              : Audio Coding 3
    Mode extension                           : CM (complete main)
    Codec ID                                 : A_AC3
    Duration                                 : 1h 47mn
    Bit rate mode                            : Constant
    Bit rate                                 : 640 Kbps
    Channel(s)                               : 6 channels
    Channel positions                        : Front: L C R, Side: L R, LFE
    Sampling rate                            : 48.0 KHz
    Bit depth                                : 16 bits
    Compression mode                         : Lossy
    Stream size                              : 493 MiB (6%)
    Language                                 : English
    Default                                  : No
    Forced                                   : No

    Text #1
    ID                                       : 4
    Format                                   : UTF-8
    Codec ID                                 : S_TEXT/UTF8
    Codec ID/Info                            : UTF-8 Plain Text
    Language                                 : Russian
    Default                                  : No
    Forced                                   : No

    Text #2
    ID                                       : 5
    Format                                   : UTF-8
    Codec ID                                 : S_TEXT/UTF8
    Codec ID/Info                            : UTF-8 Plain Text
    Language                                 : English
    Default                                  : No
    Forced                                   : No

    Text #3
    ID                                       : 6
    Format                                   : UTF-8
    Codec ID                                 : S_TEXT/UTF8
    Codec ID/Info                            : UTF-8 Plain Text
    Title                                    : SDH
    Language                                 : English
    Default                                  : No
    Forced                                   : No

    Menu
    00:00:00.000                             : :00:00:00.000
    00:07:43.296                             : :00:07:43.296
    00:17:40.726                             : :00:17:40.726
    00:25:22.813                             : :00:25:22.813
    00:31:17.918                             : :00:31:17.918
    00:41:30.530                             : :00:41:30.530
    00:49:32.177                             : :00:49:32.177
    00:57:07.007                             : :00:57:07.007
    01:02:31.206                             : :01:02:31.206
    01:06:06.629                             : :01:06:06.629
    01:12:43.567                             : :01:12:43.567
    01:17:19.635                             : :01:17:19.635
    01:23:04.396                             : :01:23:04.396
    01:28:47.113                             : :01:28:47.113
    01:40:42.870                             : :01:40:42.870

    x264 [info]: frame I:984 Avg QP:13.92 size:180418
    x264 [info]: frame P:40716 Avg QP:15.46 size: 77422
    x264 [info]: frame B:112310 Avg QP:17.88 size: 35303
    x264 [info]: consecutive B-frames: 4.7% 2.8% 20.4% 22.0% 14.5% 32.1% 3.0% 0.3% 0.2% 0.2%
    pb.wtf



    Скачать Предел риска через торрент http://i71.fastpic.ru/big/2015/0930/95/d441c5ef62b826907728f1738cf8d695.png Скачать фильм Предел риска через торрент бесплантно в хорошем качестве Описание:Сентябрь 2008 года. Мировой экономический кризис уже начался, но Америка еще не знает, какая катастрофа ждет впереди, и только ... 10 10 6
    Info! Золотая раздача, скачанное не засчитывается.
    Торрент: Зарегистрирован [2015-09-30 15:49] · скачан: 174 раз
    Статус: √ проверено
    Размер: 7.76 GB
    Как cкачать? Как скачать Предел риска через торрент | qTorrent

    % Раздел Тема Автор DL S | L
    Фильмы 2011 [ 2.18 GB ] Предел риска / Margin Call [2011 BDRip ] KEYS Скачать
    1 | 0
    Фильмы [HD 720p, 1080p] (Хороший звук DUB, MVO) [ 6.17 GB ] Предел риска / Margin Call [2011 BDRip DUB + оригинал] markfiter Скачать
    1 | 0
    Фильмы (DVD фильмы) [ 6.67 GB ] Предел риска / Margin Call [2011 DVD9] R5 «Мистерия Звука» voovaz Скачать
    1 | 0

    28-11-2019 20:33  

    Отключить всю рекламу на сайте

      Дорогой пользователь! Огромная просьба, поблагодарите релизера, оцените раздачу и оставьте свои комментарий, если Вы скачали Предел риска через торрент бесплатно! Внесите свою лепту в развитие PiratBit!
      Комментировать посты могут только пользователи прошедшие не сложную регистрацию
      Показать сообщения:    

      Предел риска через торрент
      Скачать бесплатно Предел риска
      Предел риска скачать торрент
      Предел риска смотреть онлайн
      Cкачать фильм Предел риска бесплатно
      Предел риска скачать торрент в хорошем качестве
      Предел риска смотреть онлайн бесплатно в хорошем качестве


      Вы не можете начинать темы
      Вы не можете отвечать на сообщения
      Вы не можете редактировать свои сообщения
      Вы не можете удалять свои сообщения
      Вы не можете голосовать в опросах
      Вы не можете прикреплять файлы к сообщениям
      Вы можете скачивать файлы