Ссылка на приватное зеркало всего за 1$. Внимание количество ограничено!!!

iTunes

iTunes

iTunes

1

iTunes

iTunes

iTunes

iTunes

iTunes

30
pack

$ от Little Big

ВАЖНО

!!Акция!!

Alien_RageХит недели

RePack

Resident Evil 21

ИГРА 18+

pack

RePack

jed

!!Акция!!

Alien_Rage

RePack

fifa19

RePack

Assassins Creed: Odyssey

RePack

NEED FOR SPEED™ PAYBACK

4 сезон

9 сезон

Бесстыжие 9 сезон

Все сериалы

все сериалы на PB.wtf

RePack

FAR CRY 5
  

Кибер-террор / Cyberbully (Бен Чанан) [2015, триллер, драма, детектив, WEB-DL 1080p, Профессиональный многоголосый [официальный звук] pb.wtf

Кибер-террор через торрент pb.wtf

Размер: 2.38 GB | Добавлен: 4 года 9 мес. назад | Торрент скачан:296 раз
Скачать  

30-09-2015 17:12 Кибер-террор Скачать торрент  


Кибер-террор / Cyberbully


ИНФОРМАЦИЯ:
Год выпуска:2015
Страна: Великобритания
Жанр: триллер, драма, детектив
Продолжительность: 01:01:48
Перевод: Профессиональный многоголосый [официальный звук]
Режиссер: Бен Чанан

В Ролях:


Мэйси Уильямс (Casey), Элла Пернелл (Megan), Wilson Haagens (Hacker, озвучка), Энтони Шустер (Dad, озвучка), Харука Абе (Jennifer Li), Джейк Дейвис (Alex), Дэйзи Уотерстоун (Tamara)

Описание:
Молодая девушка вынуждена выполнять все указания ненормального хакера, в противном случае её интимные фото попадут в сеть...

  • Мировая премьера:15 января 2015

    ТЕХ.ДАННЫЕ:
    Качество: WEB-DL 1080p
    Формат: MKV
    Видео: AVC, 1920x800 (2.40:1), 5120 kbps, 25 fps, 0,133 bpp
    Аудио №1: русский / AC3 / 2.0 / 48 kHz / 192 kbps / 16 bit ||
    Аудио №2: английский / AC3 / 2.0 / 48 kHz / 192 kbps / 16 bit


    General
    Unique ID : 193635342836046641312425265063466257119 (0x91ACCF7D519C947095A2CD20F1CA4ADF)
    Complete name : D:\Торенты\Kiber.terror.2015.P.WEBDL.1080p.mkv
    Format : Matroska
    Format version : Version 4 / Version 2
    File size : 2.38 GiB
    Duration : 1h 1mn
    Overall bit rate : 5 504 Kbps
    Encoded date : UTC 2015-09-30 12:59:00
    Writing application : mkvmerge v6.8.0 ('Theme for Great Cities') 64bit built on Mar 2 2014 21:34:26
    Writing library : libebml v1.3.0 + libmatroska v1.4.1

    Video
    ID : 1
    Format : AVC
    Format/Info : Advanced Video Codec
    Format profile : High@L4.0
    Format settings, CABAC : Yes
    Format settings, ReFrames : 4 frames
    Codec ID : V_MPEG4/ISO/AVC
    Duration : 1h 1mn
    Bit rate : 5 120 Kbps
    Width : 1 920 pixels
    Height : 800 pixels
    Display aspect ratio : 2.40:1
    Frame rate mode : Variable
    Frame rate : 25.000 fps
    Color space : YUV
    Chroma subsampling : 4:2:0
    Bit depth : 8 bits
    Scan type : Progressive
    Bits/(Pixel*Frame) : 0.133
    Stream size : 2.16 GiB (91%)
    Writing library : x264 core 142
    Encoding settings : cabac=1 / ref=3 / deblock=1:0:0 / analyse=0x3:0x113 / me=hex / subme=7 / psy=1 / psy_rd=1.00:0.00 / mixed_ref=1 / me_range=16 / chroma_me=1 / trellis=1 / 8x8dct=1 / cqm=0 / deadzone=21,11 / fast_pskip=1 / chroma_qp_offset=-2 / threads=36 / lookahead_threads=6 / sliced_threads=0 / nr=0 / decimate=1 / interlaced=0 / bluray_compat=0 / constrained_intra=0 / bframes=6 / b_pyramid=2 / b_adapt=1 / b_bias=0 / direct=1 / weightb=1 / open_gop=0 / weightp=2 / keyint=200 / keyint_min=20 / scenecut=0 / intra_refresh=0 / rc_lookahead=40 / rc=2pass / mbtree=1 / bitrate=5120 / ratetol=1.0 / qcomp=0.60 / qpmin=0 / qpmax=69 / qpstep=4 / cplxblur=20.0 / qblur=0.5 / vbv_maxrate=7680 / vbv_bufsize=20480 / nal_hrd=none / filler=0 / ip_ratio=1.40 / aq=1:1.00
    Language : English
    Default : Yes
    Forced : No

    Audio #1
    ID : 2
    Format : AC-3
    Format/Info : Audio Coding 3
    Mode extension : CM (complete main)
    Codec ID : A_AC3
    Duration : 1h 1mn
    Bit rate mode : Constant
    Bit rate : 192 Kbps
    Channel(s) : 2 channels
    Channel positions : Front: L R
    Sampling rate : 48.0 KHz
    Bit depth : 16 bits
    Compression mode : Lossy
    Stream size : 84.9 MiB (3%)
    Language : Russian
    Default : Yes
    Forced : Yes

    Audio #2
    ID : 3
    Format : AC-3
    Format/Info : Audio Coding 3
    Mode extension : CM (complete main)
    Codec ID : A_AC3
    Duration : 1h 1mn
    Bit rate mode : Constant
    Bit rate : 192 Kbps
    Channel(s) : 2 channels
    Channel positions : Front: L R
    Sampling rate : 48.0 KHz
    Bit depth : 16 bits
    Compression mode : Lossy
    Stream size : 84.9 MiB (3%)
    Language : English
    Default : No
    Forced : No
    Скриншоты:


    © Оформление by Ворон
    pb.wtf



  • Скачать Кибер-террор через торрент http://pic.kartinco.top/images/6/ordi9.jpg Скачать фильм Кибер-террор через торрент бесплантно в хорошем качестве Описание: Молодая девушка вынуждена выполнять все указания ненормального хакера, в противном случае её интимные фото попадут в сеть... ... 10 10 11
    Info! Золотая раздача, скачанное не засчитывается.
    Торрент: Зарегистрирован [2015-09-30 17:12] · скачан: 296 раз
    Статус: √ проверено
    Размер: 2.38 GB
    Как cкачать? Как скачать Кибер-террор через торрент | qTorrent

    % Раздел Тема Автор DL S | L
    Фильмы (WEB-DL 720p, 1080p) [ 1.28 GB ] Кибер-террор / Cyberbully [2015 WEB-DL 720p многоголосый [официальный звук] Ворон Скачать
    1 | 0
    T Фильмы 2015 (Звук TS, Cam, VO, DVO) [ 1.03 GB ] Кибер-террор / Cyberbully [2015 HDTVRip Любительский [Pashaup] Ворон Скачать
    1 | 0

    28-11-2019 20:33  

    Отключить всю рекламу на сайте

    02-10-2015 00:03 Кибер-террор Скачать торрент  

    лол этш арья :omg:pb.wtf



      Дорогой пользователь! Огромная просьба, поблагодарите релизера, оцените раздачу и оставьте свои комментарий, если Вы скачали Кибер-террор через торрент бесплатно! Внесите свою лепту в развитие PiratBit!
      Комментировать посты могут только пользователи прошедшие не сложную регистрацию
      Показать сообщения:    

      Кибер-террор через торрент
      Скачать бесплатно Кибер-террор
      Кибер-террор скачать торрент
      Кибер-террор смотреть онлайн
      Cкачать фильм Кибер-террор бесплатно
      Кибер-террор скачать торрент в хорошем качестве
      Кибер-террор смотреть онлайн бесплатно в хорошем качестве


      Вы не можете начинать темы
      Вы не можете отвечать на сообщения
      Вы не можете редактировать свои сообщения
      Вы не можете удалять свои сообщения
      Вы не можете голосовать в опросах
      Вы не можете прикреплять файлы к сообщениям
      Вы можете скачивать файлы