новый адрес
Ссылка на приватное зеркало всего за 1$. Внимание количество ограничено!!!

iTunes

1+1

iTunes

мы

WEB-DL

1

iTunes

Чернобыль

iTunes

Ральф против интернета

Лицензия

ПШазам

Лицензия

Оно 2

Лицензия

30
pack

Вам бонус

ВАЖНО

!!Акция!!

Alien_RageХит недели

RePack

Resident Evil 21

ИГРА 18+

pack

RePack

jed

!!Акция!!

Alien_Rage

RePack

fifa19

RePack

Assassins Creed: Odyssey

RePack

NEED FOR SPEED™ PAYBACK

3 сезон

9 сезон

Бесстыжие 9 сезон

Все сериалы

все сериалы на PB.wtf

RePack

FAR CRY 5
Ребята, катастрофически не хватает 1900р. для оплаты серверов за Октябрь (всвязи с блокировками трафик упал в 3 раза), 1-2р., выручайте.
  

Зеркала (Марина Мигунова) [2013 г., драма, семейный, биография, история, WEB-DLRip,"iTunes"] pb.wtf

Зеркала через торрент pb.wtf

Размер: 2.19 GB | Добавлен: 4 года 2 мес. назад | Торрент скачан:57 раз
Скачать  

30-09-2015 18:06 Зеркала Скачать торрент  

Зеркала
Год выпуска: 2013
Страна: Россия / CineLab Production
Жанр: драма, семейный, биография, история
Продолжительность: 02:17:29
Озвучивание: Оригинальное (iTunes)

Режиссер: Марина Мигунова

IMDB 5.90 (22)


В ролях: Виктория Исакова, Роман Полянский, Виктор Добронравов, Александра Мошкова, Евгений Князев, Игорь Письменный, Владимир Сычёв, Наталия Куликова, Иван Суханов, Лидия Арефьева

Описание: Лето. Крым. Последние годы перед революцией. Молодая Марина Цветаева встречает гимназиста Сергея Эфрона. И только она знает, что эти отношения оба пронесут через всю свою жизнь.Действие фильма происходит в разных странах и городах — в Москве, Париже, Праге и Коктебеле. На фоне эпохальных событий в мире развивается чувственная история отношений мужчины и женщины. «Зеркала» — это отражения великой Цветаевой в ее возлюбленных — муже и любовниках.

Качество: WEB-DLRip
Формат: AVI
Видео кодек: XviD
Аудио кодек: AC3
Видео: 720x384 (1.88:1), 24.000 fps, XviD build 50 ~1892 kbps avg, 0.28 bit/pixel
Аудио: 48 kHz, AC3 Dolby Digital, 3/2 (L,C,R,l,r) + LFE ch, ~384 kbps
скриншот   скриншот   скриншот   скриншот   скриншот   скриншот   скриншот   скриншот   скриншот   скриншот  

Общее
Полное имя : F:\кино\Зеркала.2013.WEB-DLRip.avi
Формат : AVI
Формат/Информация : Audio Video Interleave
Профиль формата : OpenDML
Размер файла : 2,19 Гбайт
Продолжительность : 2 ч. 17 м.
Общий поток : 2283 Кбит/сек
Программа кодирования : VirtualDubMod 1.5.10.3 | www.virtualdub-fr.org || (build 2550/release)
Библиотека кодирования : VirtualDubMod build 2550/release

Видео
Идентификатор : 0
Формат : MPEG-4 Visual
Профиль формата : Advanced Simple@L5
Параметр BVOP формата : 2
Параметр QPel формата : Нет
Параметр GMC формата : Без точки перехода
Параметр матрицы формата : Default (H.263)
Идентификатор кодека : XVID
Идентификатор кодека/Подсказка : XviD
Продолжительность : 2 ч. 17 м.
Битрейт : 1887 Кбит/сек
Ширина : 720 пикселей
Высота : 384 пикселя
Соотношение сторон : 1,85:1
Частота кадров : 24,000 кадра/сек
Цветовое пространство : YUV
Субдискретизация насыщенности : 4:2:0
Битовая глубина : 8 бит
Тип развёртки : Прогрессивная
Метод сжатия : С потерями
Бит/(Пиксели*Кадры) : 0.284
Размер потока : 1,81 Гбайт (83%)
Библиотека кодирования : XviD 1.2.1 (UTC 2008-12-04)

Аудио
Идентификатор : 1
Формат : AC-3
Формат/Информация : Audio Coding 3
Расширение режима : CM (complete main)
Параметр Endianness формата : Big
Идентификатор кодека : 2000
Продолжительность : 2 ч. 17 м.
Вид битрейта : Постоянный
Битрейт : 384 Кбит/сек
Каналы : 6 каналов
Расположение каналов : Front: L C R, Side: L R, LFE
Частота : 48,0 КГц
Метод сжатия : С потерями
Размер потока : 378 Мбайт (17%)
Выравнивание : Разделение по промежуткам
Продолжительность промежутка : 42 мс. (1,00 видеокадр)
Время предзагрузки промежутка : 500 мс.

pb.wtf



Скачать Зеркала через торрент http://pic1.kartinco.top/images/10/bbj46.jpg Скачать фильм Зеркала через торрент бесплантно в хорошем качестве Описание: Лето. Крым. Последние годы перед революцией. Молодая Марина Цветаева встречает гимназиста Сергея Эфрона. И только она знает, что ... 7.5 10 4
Торрент: Зарегистрирован [2015-09-30 18:06] · скачан: 57 раз
Статус: √ проверено
Размер: 2.19 GB
Как cкачать? Как скачать Зеркала через торрент | qTorrent

% Раздел Тема Автор DL S | L
T Фильмы 2018 [DVDrip, WEB-DLRip, HDrip] (DUB, MVO) [ 1.74 GB ] Черное зеркало: Брандашмыг / Black Mirror: Bandersnatch [2018 WEBRip-AVC] MVO [Profix Media] -Lexx- Скачать
4 | 0
Фильмы (WEB-DL 720p, 1080p) [ 3.83 GB ] Черное зеркало: Брандашмыг / Black Mirror: Bandersnatch [2018 WEBRip 1080p] MVO [LostFilm] bober100 Скачать
1 | 0
Фильмы (WEB-DL 720p, 1080p) [ 3.54 GB ] Черное зеркало: Брандашмыг / Black Mirror: Bandersnatch [2018 социальная сатира WEBRip 1080p] [MVO] killermax2013 Скачать
3 | 0
T Фильмы (мультфильмы) cо спонсором показа (Новинки AVI/MKV) [ 12.02 GB ] Черное зеркало: Брандашмыг / Black Mirror: Bandersnatch [2018 WEBRip 720p] [Полная версия 5 часов] MVO [BaibaKo] bober100 Скачать
1 | 0
Зарубежные сериалы [ 27.34 GB ] Черное зеркало / Black Mirror / Сезон: 4 / Серии: 1-6 из 6 [2017 WEBRip 1080p] [DVO] + 2x[MVO] killermax2013 Скачать
2 | 0
T Фильмы (мультфильмы) cо спонсором показа (Новинки AVI/MKV) [ 1.37 GB ] Черное зеркало: Брандашмыг / Black Mirror: Bandersnatch [2018 WEB-DLRip] [Line] killermax2013 Скачать
4 | 0
Зарубежные сериалы [ 8.64 GB ] Черное зеркало / Black Mirror / Сезон: 2 / Серии: 1-3 [2013 HDTV 1080i] DVO + Original Messa-fan Скачать
1 | 0

28-11-2019 20:33  

Отключить всю рекламу на сайте

    Дорогой пользователь! Огромная просьба, поблагодарите релизера, оцените раздачу и оставьте свои комментарий, если Вы скачали Зеркала через торрент бесплатно! Внесите свою лепту в развитие PiratBit!
    Комментировать посты могут только пользователи прошедшие не сложную регистрацию
    Показать сообщения:    

    Зеркала через торрент
    Скачать бесплатно Зеркала
    Зеркала скачать торрент
    Зеркала смотреть онлайн
    Cкачать фильм Зеркала бесплатно
    Зеркала скачать торрент в хорошем качестве
    Зеркала смотреть онлайн бесплатно в хорошем качестве


    Вы не можете начинать темы
    Вы не можете отвечать на сообщения
    Вы не можете редактировать свои сообщения
    Вы не можете удалять свои сообщения
    Вы не можете голосовать в опросах
    Вы не можете прикреплять файлы к сообщениям
    Вы можете скачивать файлы