Ссылка на приватное зеркало всего за 1$. Внимание количество ограничено!!!

iTunes

iTunes

iTunes

1

iTunes

iTunes

iTunes

iTunes

iTunes

30
pack

$ от Little Big

ВАЖНО

!!Акция!!

Alien_RageХит недели

RePack

Resident Evil 21

ИГРА 18+

pack

RePack

jed

!!Акция!!

Alien_Rage

RePack

fifa19

RePack

Assassins Creed: Odyssey

RePack

NEED FOR SPEED™ PAYBACK

4 сезон

9 сезон

Бесстыжие 9 сезон

Все сериалы

все сериалы на PB.wtf

RePack

FAR CRY 5
  

Плутовство / Хвост виляет собакой / Wag the Dog (Барри Левинсон) [1997, драма, комедия, HDTVRip 720p] 2 x MVO, AVO pb.wtf

Плутовство через торрент pb.wtf

Размер: 5.02 GB | Добавлен: 4 года 9 мес. назад | Торрент скачан:51 раз
Скачать  

30-09-2015 18:57 Плутовство Скачать торрент  

Плутовство / Хвост виляет собакой / Wag the Dog«Политика, как шоу-бизнес»

  • Год выхода: 1997
  • Жанр: драма, комедия

  • Страна: США
  • Продолжительность: 01:36:56
  • Перевод: Профессиональный многоголосый; Авторский одноголосый (Гаврилов)
  • Cубтитры: русские, английские
  • Режиссер: Барри Левинсон
  • В ролях:

    Дастин Хоффман (Stanley Motss), Роберт Де Ниро (Conrad Brean), Энн Хеч (Winifred Ames), Дэнис Лири (Fad King), Уилли Нельсон (Johnny Dean), Андреа Мартин (Liz Butsky), Кирстен Данст (Tracy Lime), Вуди Харрельсон (Sergeant William Schumann), Уильям Х. Мэйси (CIA Agent Charles Young), Джон Майкл Хиггинс (John Levy), Сьюзи Плэксон (Grace), Майкл Белсон (President)
  • Описание:

    Чтобы отвлечь внимание общественности от сексуального скандала, связанного с президентом США, срочно вызывают специалиста по нештатным ситуациям Конрада Брина. Брин решает инсценировать небольшую войну и, в свою очередь, привлекает известного голливудского продюсера Стенли Мотса.
    Вдвоем они организуют шоу в мировом масштабе с истинно голливудским размахом! Ну не мог Стенли Мотс упустить этот редкий шанс удовлетворения своих профессиональных амбиций!

  • Качество: HDTVRip 720p
  • Формат: MKV
  • Видео кодек: AVC
  • Аудио кодек: AC3
  • Видео: AVC, 1280x720 (16:9), 6066 kbps, 23,976 fps, 0,275 bpp
  • Аудио №1: русский / AC3 / 5.1 / 48 kHz / 384 kbps / 16 bit |MVO|
  • Аудио №2: русский / AC3 / 5.1 / 48 kHz / 384 kbps / 16 bit |MVO|
  • Аудио №3: русский / AC3 / 2.0 / 48 kHz / 192 kbps / 16 bit |AVO Гаврилов|
  • Аудио №4: английский / AC3 / 5.1 / 48 kHz / 384 kbps / 16 bit

    Код:

    General
    Unique ID                                : 253413698978464488815100691116064705708 (0xBEA5B3FF8B7ED1C48618BB32456F0CAC)
    Complete name                            : H:\Wag.the.Dog.1997.HDTVRip.720p.mkv
    Format                                   : Matroska
    Format version                           : Version 4 / Version 2
    File size                                : 5.02 GiB
    Duration                                 : 1h 36mn
    Overall bit rate mode                    : Variable
    Overall bit rate                         : 7 415 Kbps
    Encoded date                             : UTC 2015-09-30 18:13:14
    Writing application                      : mkvmerge v8.4.0 ('A better way to fly') 64bit
    Writing library                          : libebml v1.3.1 + libmatroska v1.4.2
    DURATION                                 : 01:33:44.930000000
    NUMBER_OF_FRAMES                         : 1946
    NUMBER_OF_BYTES                          : 68837
    _STATISTICS_WRITING_APP                  : mkvmerge v8.4.0 ('A better way to fly') 64bit
    _STATISTICS_WRITING_DATE_UTC             : 2015-09-30 18:13:14
    _STATISTICS_TAGS                         : BPS DURATION NUMBER_OF_FRAMES NUMBER_OF_BYTES

    Video
    ID                                       : 1
    Format                                   : AVC
    Format/Info                              : Advanced Video Codec
    Format profile                           : High@L4.1
    Format settings, CABAC                   : Yes
    Format settings, ReFrames                : 8 frames
    Codec ID                                 : V_MPEG4/ISO/AVC
    Duration                                 : 1h 36mn
    Bit rate mode                            : Variable
    Bit rate                                 : 6 066 Kbps
    Maximum bit rate                         : 40.0 Mbps
    Width                                    : 1 280 pixels
    Height                                   : 720 pixels
    Display aspect ratio                     : 16:9
    Frame rate                               : 23.976 fps
    Color space                              : YUV
    Chroma subsampling                       : 4:2:0
    Bit depth                                : 8 bits
    Scan type                                : Progressive
    Bits/(Pixel*Frame)                       : 0.275
    Stream size                              : 4.01 GiB (80%)
    Title                                    : Wag the Dog  (1997)
    Writing library                          : x264 core 49 svn-551M
    Encoding settings                        : cabac=1 / ref=5 / deblock=1:-2:-2 / analyse=0x3:0x133 / me=umh / subme=6 / brdo=1 / mixed_ref=1 / me_range=16 / chroma_me=1 / trellis=0 / 8x8dct=1 / cqm=0 / chroma_qp_offset=0 / slices=1 / nr=0 / decimate=1 / bframes=3 / b_pyramid=1 / b_adapt=1 / b_bias=0 / direct=3 / wpredb=1 / bime=1 / keyint=250 / keyint_min=25 / scenecut=40 / rc=2pass / bitrate=6066 / ratetol=1.0 / rceq='blurCplx^(1-qComp)' / qcomp=0.60 / qpmin=10 / qpmax=51 / qpstep=4 / cplxblur=20.0 / qblur=0.5 / ip_ratio=1.40 / pb_ratio=1.3
    Language                                 : English
    Default                                  : Yes
    Forced                                   : No

    Audio #1
    ID                                       : 2
    Format                                   : AC-3
    Format/Info                              : Audio Coding 3
    Mode extension                           : CM (complete main)
    Codec ID                                 : A_AC3
    Duration                                 : 1h 36mn
    Bit rate mode                            : Constant
    Bit rate                                 : 384 Kbps
    Channel(s)                               : 6 channels
    Channel positions                        : Front: L C R, Side: L R, LFE
    Sampling rate                            : 48.0 KHz
    Bit depth                                : 16 bits
    Compression mode                         : Lossy
    Stream size                              : 266 MiB (5%)
    Language                                 : Russian
    Default                                  : Yes
    Forced                                   : No

    Audio #2
    ID                                       : 3
    Format                                   : AC-3
    Format/Info                              : Audio Coding 3
    Mode extension                           : CM (complete main)
    Codec ID                                 : A_AC3
    Duration                                 : 1h 36mn
    Bit rate mode                            : Constant
    Bit rate                                 : 384 Kbps
    Channel(s)                               : 6 channels
    Channel positions                        : Front: L C R, Side: L R, LFE
    Sampling rate                            : 48.0 KHz
    Bit depth                                : 16 bits
    Compression mode                         : Lossy
    Stream size                              : 266 MiB (5%)
    Language                                 : Russian
    Default                                  : No
    Forced                                   : No

    Audio #3
    ID                                       : 4
    Format                                   : AC-3
    Format/Info                              : Audio Coding 3
    Mode extension                           : CM (complete main)
    Codec ID                                 : A_AC3
    Duration                                 : 1h 36mn
    Bit rate mode                            : Constant
    Bit rate                                 : 192 Kbps
    Channel(s)                               : 2 channels
    Channel positions                        : Front: L R
    Sampling rate                            : 48.0 KHz
    Bit depth                                : 16 bits
    Compression mode                         : Lossy
    Stream size                              : 133 MiB (3%)
    Title                                    : AVO Гаврилов
    Language                                 : Russian
    Default                                  : No
    Forced                                   : No

    Audio #4
    ID                                       : 5
    Format                                   : AC-3
    Format/Info                              : Audio Coding 3
    Mode extension                           : CM (complete main)
    Codec ID                                 : A_AC3
    Duration                                 : 1h 36mn
    Bit rate mode                            : Constant
    Bit rate                                 : 384 Kbps
    Channel(s)                               : 6 channels
    Channel positions                        : Front: L C R, Side: L R, LFE
    Sampling rate                            : 48.0 KHz
    Bit depth                                : 16 bits
    Compression mode                         : Lossy
    Stream size                              : 266 MiB (5%)
    Title                                    : Original
    Language                                 : English
    Default                                  : No
    Forced                                   : No

    Text #1
    ID                                       : 6
    Format                                   : UTF-8
    Codec ID                                 : S_TEXT/UTF8
    Codec ID/Info                            : UTF-8 Plain Text
    Language                                 : Russian
    Default                                  : No
    Forced                                   : No

    Text #2
    ID                                       : 7
    Format                                   : UTF-8
    Codec ID                                 : S_TEXT/UTF8
    Codec ID/Info                            : UTF-8 Plain Text
    Language                                 : English
    Default                                  : No
    Forced                                   : No

    Скриншоты:


    © Оформление by -Lexx- pb.wtf



  • Скачать Плутовство через торрент http://s020.radikal.ru/i707/1509/80/1193c8189607.png Скачать фильм Плутовство через торрент бесплантно в хорошем качестве Описание: Чтобы отвлечь внимание общественности от сексуального скандала, связанного с президентом США, срочно вызывают специалиста по ... 10 10 5
    Info! Золотая раздача, скачанное не засчитывается.
    Торрент: Зарегистрирован [2015-09-30 18:57] · скачан: 51 раз
    Статус: √ проверено
    Размер: 5.02 GB
    Как cкачать? Как скачать Плутовство через торрент | qTorrent

    28-11-2019 20:33  

    Отключить всю рекламу на сайте

      Дорогой пользователь! Огромная просьба, поблагодарите релизера, оцените раздачу и оставьте свои комментарий, если Вы скачали Плутовство через торрент бесплатно! Внесите свою лепту в развитие PiratBit!
      Комментировать посты могут только пользователи прошедшие не сложную регистрацию
      Показать сообщения:    

      Плутовство через торрент
      Скачать бесплатно Плутовство
      Плутовство скачать торрент
      Плутовство смотреть онлайн
      Cкачать фильм Плутовство бесплатно
      Плутовство скачать торрент в хорошем качестве
      Плутовство смотреть онлайн бесплатно в хорошем качестве


      Вы не можете начинать темы
      Вы не можете отвечать на сообщения
      Вы не можете редактировать свои сообщения
      Вы не можете удалять свои сообщения
      Вы не можете голосовать в опросах
      Вы не можете прикреплять файлы к сообщениям
      Вы можете скачивать файлы