новый адрес
Мега распродажа FORZA HORIZON 4 ULTIMATE+ВСЕ DLC+ОНЛАЙН всего за 499р. 349 руб. (супер цена). Внимание количество ограничено!!!

iTunes

1+1

iTunes

мы

iTunes

1

iTunes

Чернобыль

iTunes

Ральф против интернета

Лицензия

ПШазам

Лицензия

Оно 2

Лицензия

30
pack

ВАЖНО

!!Акция!!

Alien_RageХит недели

RePack

Resident Evil 21

ИГРА 18+

pack

RePack

Metro:Exodus

!!Акция!!

Alien_Rage

RePack

fifa19

RePack

Assassins Creed: Odyssey

RePack

NEED FOR SPEED™ PAYBACK

3 сезон

9 сезон

Бесстыжие 9 сезон

Все сериалы

все сериалы на PB.wtf

RePack

FAR CRY 5
Ребята, катастрофически не хватает 1900р. для оплаты серверов за Октябрь (всвязи с блокировками трафик упал в 3 раза), 1-2р., выручайте.
  

Мусоргский (Григорий Рошаль) [1950, СССР, драма, биография, DVDRip от AVP Studio] pb.wtf

Мусоргский через торрент pb.wtf

Размер: 1.46 GB | Добавлен: 4 года 1 мес. назад | Торрент скачан:19 раз
Скачать  

01-10-2015 07:39 Мусоргский Скачать торрент  

Мусоргский
Страна: СССР
Производство: Ленфильм

Жанр: драма, биография
Год выпуска: 1950
Продолжительность: 01:53:22

Перевод: Не требуется
Cубтитры: нет
Оригинальная аудиодорожка: русский

Режиссер: Григорий Рошаль

В ролях:
Александр Борисов, Николай Черкасов, Владимир Балашов, Андрей Попов, Юрий Леонидов, Бруно Фрейндлих, Фёдор Никитин, Любовь Орлова, Лидия Штыкан, Валентина Ушакова, Георгий Орлов, Виктор Морозов, Лидия Сухаревская, В. Беззубенко, Константин Адашевский, Георгий Георгиу, Василий Софронов, Лев Фенин, Григорий Шпигель, Александра Васильева...
Полный список актёров

Описание:
О великом русском композиторе Модесте Петровиче Мусоргском (1839-1881), его сотрудничестве с "Могучей кучкой" и первой постановке на сцене Мариинского театра народно-героической драмы "Борис Годунов".
Фильм раскрывает творческий процесс работы гениального русского композитора, достоверно воспроизводит историческую обстановку, отличается высоким уровнем актёрского мастерства. Режиссёр передал связь музыки композитора, его творчества с живыми народными истоками.

Источник: DVD5 R5
Качество видео: DVDRip
Формат видео: AVI

Видео: 672x496 (4:3), 25 fps, XviD ~ 1639 kbps avg, 0.197 bit/pixel
Аудио: 48 kHz, Dolby Digital AC3 2.0, 192 kbps

Раздача от:
Общее
Полное имя : Musorgskiy.1950.DVDRip_[New-team]_by_AVP_Studio.avi
Формат : AVI
Формат/Информация : Audio Video Interleave
Размер файла : 1,46 Гбайт
Продолжительность : 1 ч. 53 м.
Общий поток : 1841 Кбит/сек
Программа кодирования : VirtualDubMod 1.5.10.3 | www.virtualdub-fr.org || (build 2550/release)
Библиотека кодирования : VirtualDubMod build 2550/release

Видео
Идентификатор : 0
Формат : MPEG-4 Visual
Профиль формата : Advanced Simple@L5
Параметр BVOP формата : 1
Параметр QPel формата : Нет
Параметр GMC формата : Без точки перехода
Параметр матрицы формата : Выборочная
Идентификатор кодека : XVID
Идентификатор кодека/Подсказка : XviD
Продолжительность : 1 ч. 53 м.
Битрейт : 1639 Кбит/сек
Ширина : 672 пикселя
Высота : 496 пикселей
Соотношение сторон : 4:3
Частота кадров : 25,000 кадров/сек
Цветовое пространство : YUV
Субдискретизация насыщенности : 4:2:0
Битовая глубина : 8 бит
Тип развёртки : Прогрессивная
Метод сжатия : С потерями
Бит/(Пиксели*Кадры) : 0.197
Размер потока : 1,30 Гбайт (89%)
Библиотека кодирования : XviD 73

Аудио
Идентификатор : 1
Формат : AC-3
Формат/Информация : Audio Coding 3
Расширение режима : CM (complete main)
Параметр Endianness формата : Big
Идентификатор кодека : 2000
Продолжительность : 1 ч. 53 м.
Вид битрейта : Постоянный
Битрейт : 192 Кбит/сек
Каналы : 2 канала
Расположение каналов : Front: L R
Частота : 48,0 КГц
Метод сжатия : С потерями
Размер потока : 156 Мбайт (10%)
Выравнивание : Разделение по промежуткам
Продолжительность промежутка : 40 мс. (1,00 видеокадр)
Время предзагрузки промежутка : 500 мс
pb.wtf



Скачать Мусоргский через торрент http://s003.radikal.ru/i202/1510/8a/35ec9c3eaa2c.png Скачать фильм Мусоргский через торрент бесплантно в хорошем качестве Описание:О великом русском композиторе Модесте Петровиче Мусоргском (1839-1881), его сотрудничестве с "Могучей кучкой" и первой постановке ... 10 10 1
Info! Золотая раздача, скачанное не засчитывается.
Торрент: Зарегистрирован [2015-10-03 18:49] · скачан: 19 раз
Статус: √ проверено
Размер: 1.46 GB
Как cкачать? Как скачать Мусоргский через торрент | qTorrent

% Раздел Тема Автор DL S | L
Кино СССР [ 1.46 GB ] Мусоргский [1950 СССР биография DVDRip-AVC от AVP Studio] AVP Studio Скачать
1 | 0


>> Регистрируемся здесь <<






Отзывы и комментарии о схеме читаем и пишем здесь: ---> Отзывы и комментарии о схеме

Новые благодарочки в телеграм довольных пользователей:
скриншот   скриншот   скриншот   скриншот   скриншот

03-10-2015 19:22 Мусоргский Скачать торрент  

Хороший фильмpb.wtf



    Дорогой пользователь! Огромная просьба, поблагодарите релизера, оцените раздачу и оставьте свои комментарий, если Вы скачали Мусоргский через торрент бесплатно! Внесите свою лепту в развитие PiratBit!
    Комментировать посты могут только пользователи прошедшие не сложную регистрацию
    Показать сообщения:    

    Мусоргский через торрент
    Скачать бесплатно Мусоргский
    Мусоргский скачать торрент
    Мусоргский смотреть онлайн
    Cкачать фильм Мусоргский бесплатно
    Мусоргский скачать торрент в хорошем качестве
    Мусоргский смотреть онлайн бесплатно в хорошем качестве


    Вы не можете начинать темы
    Вы не можете отвечать на сообщения
    Вы не можете редактировать свои сообщения
    Вы не можете удалять свои сообщения
    Вы не можете голосовать в опросах
    Вы не можете прикреплять файлы к сообщениям
    Вы можете скачивать файлы