новый адрес пиратбит piratbit
Мега распродажа FORZA HORIZON 4 ULTIMATE+ВСЕ DLC+ОНЛАЙН всего за 499р. 349 руб. (супер цена). Внимание количество ограничено!!!

iTunes

1+1

iTunes

мы

iTunes

1

iTunes

Чернобыль

iTunes

Ральф против интернета

Лицензия

ПШазам

Лицензия

Игра престолов

Лицензия

30
pack

ВАЖНО

!!Акция!!

Alien_RageХит недели

RePack

Resident Evil 21

ИГРА 18+

pack

RePack

Metro:Exodus

!!Акция!!

Alien_Rage

RePack

fifa19

RePack

Assassins Creed: Odyssey

RePack

NEED FOR SPEED™ PAYBACK

3 сезон

9 сезон

Бесстыжие 9 сезон

Все сериалы

все сериалы на PB.wtf

RePack

FAR CRY 5
Ребята, катастрофически не хватает 1900р. для оплаты серверов за Октябрь (всвязи с блокировками трафик упал в 3 раза), 1-2р., выручайте.
  

Огни Баку (Иосиф Хейфиц, Рза Тахмасиб, Александр Зархи) [1950, СССР, драма, DVDRip от AVP Studio] pb.wtf

Огни Баку через торрент pb.wtf

Размер: 744 MB | Добавлен: 4 года 1 мес. назад | Торрент скачан:2 раза
Скачать  

01-10-2015 08:14 Огни Баку Скачать торрент  

Огни Баку
Страна: СССР
Производство: Бакинская киностудия

Жанр: драма
Год выпуска: 1950
Продолжительность: 01:11:47

Перевод: Не требуется
Cубтитры: нет
Оригинальная аудиодорожка: русский

Режиссер: Иосиф Хейфиц, Рза Тахмасиб, Александр Зархи

В ролях:
Мирза Алиев, Марзия Давудова, Николай Охлопков, Наджиба Меликова, И. Эль-Оглы, Николай Крючков, Петр Аржанов, Серке (Сералы) Кожамкулов, Михаил Геловани, Николай Мордвинов...
Полный список актёров

Описание:
События происходят с 1930 годов до конца 40-ых. В это время нефтепромыслы были оснащены новым оборудованием, проходили испытания по добыче нефти в открытом море. Нефтяники самоотверженно трудились, чтобы обеспечить горючим фронт. Заключительные кадры фильма - первые послевоенные годы, в Баку зажигаются огни новых нефтяных скважин.

Источник: DVD5 R5
Качество видео: DVDRip
Формат видео: AVI

Видео: 688x512 (4:3), 25 fps, XviD ~ 1311 kbps avg, 0.149 bit/pixel
Аудио: 48 kHz, Dolby Digital AC3 1.0, 128 kbps

Раздача от:
Общее
Полное имя : Ogni.Baku.1950.DVDRip_[New-team]_by_AVP_Studio.avi
Формат : AVI
Формат/Информация : Audio Video Interleave
Размер файла : 744 Мбайт
Продолжительность : 1 ч. 11 м.
Общий поток : 1448 Кбит/сек
Программа кодирования : VirtualDubMod 1.5.10.3 | www.virtualdub-fr.org || (build 2550/release)
Библиотека кодирования : VirtualDubMod build 2550/release

Видео
Идентификатор : 0
Формат : MPEG-4 Visual
Профиль формата : Advanced Simple@L5
Параметр BVOP формата : 1
Параметр QPel формата : Нет
Параметр GMC формата : Без точки перехода
Параметр матрицы формата : Выборочная
Идентификатор кодека : XVID
Идентификатор кодека/Подсказка : XviD
Продолжительность : 1 ч. 11 м.
Битрейт : 1311 Кбит/сек
Ширина : 688 пикселей
Высота : 512 пикселей
Соотношение сторон : 4:3
Частота кадров : 25,000 кадров/сек
Цветовое пространство : YUV
Субдискретизация насыщенности : 4:2:0
Битовая глубина : 8 бит
Тип развёртки : Прогрессивная
Метод сжатия : С потерями
Бит/(Пиксели*Кадры) : 0.149
Размер потока : 673 Мбайт (90%)
Библиотека кодирования : XviD 73

Аудио
Идентификатор : 1
Формат : AC-3
Формат/Информация : Audio Coding 3
Расширение режима : CM (complete main)
Параметр Endianness формата : Big
Идентификатор кодека : 2000
Продолжительность : 1 ч. 11 м.
Вид битрейта : Постоянный
Битрейт : 128 Кбит/сек
Каналы : 1 канал
Расположение каналов : Front: C
Частота : 48,0 КГц
Метод сжатия : С потерями
Размер потока : 65,7 Мбайт (9%)
Выравнивание : Разделение по промежуткам
Продолжительность промежутка : 40 мс. (1,00 видеокадр)
Время предзагрузки промежутка : 500 мс
pb.wtf



Скачать Огни Баку через торрент http://s017.radikal.ru/i403/1510/e6/f7e7c7ae373c.png Скачать фильм Огни Баку через торрент бесплантно в хорошем качестве Описание:События происходят с 1930 годов до конца 40-ых. В это время нефтепромыслы были оснащены новым оборудованием, проходили испытания ... 10 10 1
Торрент: Зарегистрирован [2015-10-01 08:14] · скачан: 2 раз
Статус: √ проверено
Размер: 744 MB
Как cкачать? Как скачать Огни Баку через торрент | qTorrent

% Раздел Тема Автор DL S | L
Кино СССР [ 1.09 GB ] Огни Баку [1950 СССР DVDRip-AVC от AVP Studio] AVP Studio Скачать
1 | 0


>> Регистрируемся здесь <<






Отзывы и комментарии о схеме читаем и пишем здесь: ---> Отзывы и комментарии о схеме

Новые благодарочки в телеграм довольных пользователей:
скриншот   скриншот   скриншот   скриншот   скриншот
    Дорогой пользователь! Огромная просьба, поблагодарите релизера, оцените раздачу и оставьте свои комментарий, если Вы скачали Огни Баку через торрент бесплатно! Внесите свою лепту в развитие PiratBit!
    Комментировать посты могут только пользователи прошедшие не сложную регистрацию
    Показать сообщения:    

    Огни Баку через торрент
    Скачать бесплатно Огни Баку
    Огни Баку скачать торрент
    Огни Баку смотреть онлайн
    Cкачать фильм Огни Баку бесплатно
    Огни Баку скачать торрент в хорошем качестве
    Огни Баку смотреть онлайн бесплатно в хорошем качестве


    Вы не можете начинать темы
    Вы не можете отвечать на сообщения
    Вы не можете редактировать свои сообщения
    Вы не можете удалять свои сообщения
    Вы не можете голосовать в опросах
    Вы не можете прикреплять файлы к сообщениям
    Вы можете скачивать файлы