Ссылка на приватное зеркало нашего сайта всего за 1$. Внимание количество ограничено!!!

2 сезон

iTunes

1 сезон

1

iTunes

iTunes

iTunes

1 сезон

RePack

30

ИГРА 18+

pack

ВАЖНО

!!Акция!!

Alien_RageХит недели

RePack

MK11
pack

Забери бонус

RePack

jed

!!Акция!!

Alien_Rage

RePack

fifa19

RePack

Assassins Creed: Odyssey

RePack

NEED FOR SPEED™ PAYBACK

4 сезон

9 сезон

Бесстыжие 9 сезон

Все сериалы

все сериалы на PB.wtf

RePack

FAR CRY 5
  

Железная схватка / Robot Overlords (Джон Райт) [2014, фантастика, боевик, приключения, BDRip 1080p, Профессиональный многоголосый [Лицензия / iTunes] pb.wtf

Железная схватка через торрент pb.wtf

Размер: 7.16 GB | Добавлен: 5 лет назад | Торрент скачан:247 раз
Скачать  

01-10-2015 10:06 Железная схватка Скачать торрент  


Железная схватка / Robot Overlords
««Поклонись своим новым повелителям»»

ИНФОРМАЦИЯ:
Год выпуска:2014
Страна: Великобритания
Жанр: фантастика, боевик, приключения
Продолжительность: 01:30:04
Перевод: Профессиональный многоголосый [Лицензия / iTunes]
Субтитры: английские, английские (SDH),
Режиссер: Джон Райт

В Ролях:


Джиллиан Андерсон (Kate), Бен Кингсли (Robin Smythe), Каллэн МакОлифф (Sean Flynn), Майло Паркер (Connor), Джеральдин Джеймс (Monique), Элла Хант (Alexandra), Тамер Хассан (Wayne), Стивен Макинтош (Danny), Крэйг Гарнер (Mediator 452), Дэвид МакСавадж (Donald), Джастин Салинджер (Conor's Dad), Сонни Грин (Rough Teenager)

Описание:
Роботы из далекой Галактики захватили Землю. Лондон разрушен, люди живут в постоянном страхе. Выжившим запрещено покидать свои дома. Каждому человеку вмонтирован чип, который в случае неповиновения может превратить его в горстку пепла. И лишь группа молодых друзей решается бросить вызов инопланетным захватчикам и уничтожить необъятный корабль, заслоняющий горизонт вот уже долгие годы.

  • Мировая премьера:18 октября 2014

    ТЕХ.ДАННЫЕ:
    Качество: BDRip 1080p
    Формат: MKV
    Видео: AVC, 1920x800 (2.40:1), 9500 kbps, 23,976 fps, 0,258 bpp
    Аудио №1: русский / AC3 / 5.1 / 48 kHz / 384 kbps / 16 bit ||
    Аудио №2: английский / DTS / 5.1 / 48 kHz / 1510 kbps / 24 bit
    Навигация по главам: есть


    General
    Unique ID : 180245590520511946662439246029173577467 (0x879A09BB33A3453A9178F17058BC56FB)
    Complete name : D:\Торенты\Zhele3HaYa.CxBatKa.2014.P.BDRip.1080p.mkv
    Format : Matroska
    Format version : Version 4 / Version 2
    File size : 7.16 GiB
    Duration : 1h 30mn
    Overall bit rate : 11.4 Mbps
    Encoded date : UTC 2015-09-30 21:15:07
    Writing application : mkvmerge v6.9.1 ('Blue Panther') 64bit built on Apr 18 2014 18:23:38
    Writing library : libebml v1.3.0 + libmatroska v1.4.1

    Video
    ID : 1
    Format : AVC
    Format/Info : Advanced Video Codec
    Format profile : High@L4.1
    Format settings, CABAC : Yes
    Format settings, ReFrames : 4 frames
    Codec ID : V_MPEG4/ISO/AVC
    Duration : 1h 30mn
    Bit rate : 9 500 Kbps
    Width : 1 920 pixels
    Height : 800 pixels
    Display aspect ratio : 2.40:1
    Frame rate : 23.976 fps
    Color space : YUV
    Chroma subsampling : 4:2:0
    Bit depth : 8 bits
    Scan type : Progressive
    Bits/(Pixel*Frame) : 0.258
    Stream size : 5.82 GiB (81%)
    Writing library : x264 core 142 r2479 dd79a61
    Encoding settings : cabac=1 / ref=3 / deblock=1:0:0 / analyse=0x3:0x113 / me=umh / subme=10 / psy=1 / psy_rd=1.05:0.10 / mixed_ref=1 / me_range=48 / chroma_me=1 / trellis=2 / 8x8dct=1 / cqm=0 / deadzone=21,11 / fast_pskip=0 / chroma_qp_offset=-2 / threads=12 / lookahead_threads=1 / sliced_threads=0 / nr=0 / decimate=1 / interlaced=0 / bluray_compat=0 / constrained_intra=0 / bframes=6 / b_pyramid=2 / b_adapt=2 / b_bias=0 / direct=3 / weightb=1 / open_gop=0 / weightp=2 / keyint=250 / keyint_min=23 / scenecut=40 / intra_refresh=0 / rc=2pass / mbtree=0 / bitrate=9500 / ratetol=2.0 / qcomp=0.70 / qpmin=0 / qpmax=69 / qpstep=4 / cplxblur=20.0 / qblur=0.5 / ip_ratio=1.40 / pb_ratio=1.30 / aq=2:1.00
    Language : English
    Default : Yes
    Forced : No

    Audio #1
    ID : 2
    Format : AC-3
    Format/Info : Audio Coding 3
    Mode extension : CM (complete main)
    Codec ID : A_AC3
    Duration : 1h 30mn
    Bit rate mode : Constant
    Bit rate : 384 Kbps
    Channel(s) : 6 channels
    Channel positions : Front: L C R, Side: L R, LFE
    Sampling rate : 48.0 KHz
    Bit depth : 16 bits
    Compression mode : Lossy
    Stream size : 247 MiB (3%)
    Language : Russian
    Default : Yes
    Forced : No

    Audio #2
    ID : 3
    Format : DTS
    Format/Info : Digital Theater Systems
    Codec ID : A_DTS
    Duration : 1h 30mn
    Bit rate mode : Constant
    Bit rate : 1 510 Kbps
    Channel(s) : 6 channels
    Channel positions : Front: L C R, Side: L R, LFE
    Sampling rate : 48.0 KHz
    Bit depth : 24 bits
    Compression mode : Lossy
    Stream size : 973 MiB (13%)
    Language : English
    Default : No
    Forced : No

    Text #1
    ID : 4
    Format : UTF-8
    Codec ID : S_TEXT/UTF8
    Codec ID/Info : UTF-8 Plain Text
    Language : English
    Default : No
    Forced : No

    Text #2
    ID : 5
    Format : UTF-8
    Codec ID : S_TEXT/UTF8
    Codec ID/Info : UTF-8 Plain Text
    Title : SDH
    Language : English
    Default : No
    Forced : No

    Menu
    00:00:00.000 : en:00:00:00.000
    00:05:12.479 : en:00:05:12.479
    00:11:58.843 : en:00:11:58.843
    00:15:56.873 : en:00:15:56.873
    00:20:46.495 : en:00:20:46.495
    00:27:00.285 : en:00:27:00.285
    00:33:12.949 : en:00:33:12.949
    00:37:59.986 : en:00:37:59.986
    00:43:50.294 : en:00:43:50.294
    00:49:13.242 : en:00:49:13.242
    00:54:32.519 : en:00:54:32.519
    01:00:07.938 : en:01:00:07.938
    01:05:18.915 : en:01:05:18.915
    01:10:23.136 : en:01:10:23.136
    01:15:15.553 : en:01:15:15.553
    01:22:29.695 : en:01:22:29.695
    Скриншоты:


    © Оформление by Ворон
    pb.wtf



  • Скачать Железная схватка через торрент http://pic.kartinco.top/images/6/ordi9.jpg Скачать фильм Железная схватка через торрент бесплантно в хорошем качестве Описание: Роботы из далекой Галактики захватили Землю. Лондон разрушен, люди живут в постоянном страхе. Выжившим запрещено покидать свои ... 9.9 10 7
    Торрент: Зарегистрирован [2015-10-01 10:06] · скачан: 247 раз
    Статус: √ проверено
    Размер: 7.16 GB
    Как cкачать? Как скачать Железная схватка через торрент | qTorrent

    % Раздел Тема Автор DL S | L
    Фильмы 2014 [DVDrip, WEB-DLRip, HDrip] [ 2.06 GB ] Железная схватка / Robot Overlords [2014 BDRip-AVC многоголосый Ворон Скачать
    1 | 0
    Фильмы 2014 [DVDrip, WEB-DLRip, HDrip] [ 1.42 GB ] Железная схватка / Robot Overlords [2014 BDRip Twi7ter Скачать
    1 | 0
    Фильмы [HD 720p, 1080p] (Хороший звук DUB, MVO) [ 4.61 GB ] Железная схватка / Robot Overlords [2014 BDRip 720p многоголосый Ворон Скачать
    1 | 0

    28-11-2019 20:33  

    Отключить всю рекламу на сайте

      Дорогой пользователь! Огромная просьба, поблагодарите релизера, оцените раздачу и оставьте свои комментарий, если Вы скачали Железная схватка через торрент бесплатно! Внесите свою лепту в развитие PiratBit!
      Комментировать посты могут только пользователи прошедшие не сложную регистрацию
      Показать сообщения:    

      Железная схватка через торрент
      Скачать бесплатно Железная схватка
      Железная схватка скачать торрент
      Железная схватка смотреть онлайн
      Cкачать фильм Железная схватка бесплатно
      Железная схватка скачать торрент в хорошем качестве
      Железная схватка смотреть онлайн бесплатно в хорошем качестве


      Вы не можете начинать темы
      Вы не можете отвечать на сообщения
      Вы не можете редактировать свои сообщения
      Вы не можете удалять свои сообщения
      Вы не можете голосовать в опросах
      Вы не можете прикреплять файлы к сообщениям
      Вы можете скачивать файлы