Всегда рабочее зеркало без VPN и Proxy просто перед .vidak.icu напиши любое слово или цифру, Пример http://u06f.vidak.icu

Лицензия

MVO

1 сезон

1

1 сезон

iTunes

1 сезон

13

1 сезон

Deluxe

pack

Рекомендуем

Repack

30

ВАЖНО

RePack

MK11

RePack

jed

RePack

fifa19

RePack

RDR2

RePack

NEED FOR SPEED™ PAYBACK

Кинопоиск HD

6 сезон

 Острые козырьки 6 сезон

Все сериалы

все сериалы на PB.wtf

RePack

FAR CRY 5
  
Magnet ссылка

Любопытный Джордж 3 / Curious George 3: Back to the Jungle (Фил Вайнштейн) [2015, мультфильм, семейный, HDRip, Дубляж] / Чистый звук pb.wtf

Любопытный Джордж 3 через торрент pb.wtf

Размер: 1.37 GB | Добавлен: 6 лет 10 мес. назад | Торрент скачан:194 раза
Смотреть онлайн Любопытный Джордж 3 | Скачать    Ребята, помогите собрать деньги на оплату серверов!!!

01-10-2015 16:18 Любопытный Джордж 3 Скачать торрент  


Любопытный Джордж 3 / Curious George 3: Back to the Jungle


ИНФОРМАЦИЯ:
Год выпуска:2015
Страна: США
Жанр: мультфильм, семейный
Продолжительность: 01:20:30
Перевод: Дубляж - [Чистый звук]
Режиссер: Фил Вайнштейн

В Ролях:


Анджела Бассетт (Dr. Kulinda), Джефф Беннетт (Ted), Джон Гудман (Houston), Александр Полински (Tech Andrew), Фрэнк Уэлкер (Curious George)

Описание:
Полнометражный мультфильм, созданный по мотивам книги Ханса Аугусто Рея и Маргрет Рей, о приключениях маленькой, очень умной и очень любопытной обезьянки по имени Джордж, которая никогда не сидит на месте. Когда-то сотрудник музея древностей по имени Тед отправился в южноафриканские джунгли на поиски магического артефакта, встретил там Джорджа, и с тех пор человек и обезьянка стали неразлучными друзьями. В один прекрасный день в музей, где работает Тед, приходят представители Всемирного Космического Агентства. Они предлагают Джорджу совершить полет в космос с благородной целью – он должен спасти свою родину, джунгли.

  • Мировая премьера:23 июня 2015

    ТЕХ.ДАННЫЕ:
    Качество: HDRip
    Формат: AVI
    Видео: XviD, 720x400 (16:9), 1943 kbps, 23,976 fps, 0,281 bpp
    Аудио №1: AC3 / 2.0 / 48 kHz / 192 kbps / Russian
    Аудио №2: AC3 / 2.0 / 48 kHz / 192 kbps / English


    General
    Complete name : D:\Торенты\Lubopytnyj.Dzhordzh.3.2015.D.HDRp.avi
    Format : AVI
    Format/Info : Audio Video Interleave
    File size : 1.37 GiB
    Duration : 1h 20mn
    Overall bit rate : 2 435 Kbps
    Writing application : VirtualDubMod 1.5.10.2 (build 2540/release)
    Writing library : VirtualDubMod build 2540/release

    Video
    ID : 0
    Format : MPEG-4 Visual
    Format profile : Advanced [email protected]
    Format settings, BVOP : 2
    Format settings, QPel : No
    Format settings, GMC : No warppoints
    Format settings, Matrix : Default (MPEG)
    Codec ID : XVID
    Codec ID/Hint : XviD
    Duration : 1h 20mn
    Bit rate : 1 944 Kbps
    Width : 720 pixels
    Height : 400 pixels
    Display aspect ratio : 16:9
    Frame rate : 23.976 fps
    Color space : YUV
    Chroma subsampling : 4:2:0
    Bit depth : 8 bits
    Scan type : Progressive
    Compression mode : Lossy
    Bits/(Pixel*Frame) : 0.281
    Stream size : 1.09 GiB (80%)
    Writing library : XviD 1.2.1 (UTC 2008-12-04)

    Audio #1
    ID : 1
    Format : AC-3
    Format/Info : Audio Coding 3
    Mode extension : CM (complete main)
    Codec ID : 2000
    Duration : 1h 20mn
    Bit rate mode : Constant
    Bit rate : 192 Kbps
    Channel(s) : 2 channels
    Channel positions : Front: L R
    Sampling rate : 48.0 KHz
    Bit depth : 16 bits
    Compression mode : Lossy
    Stream size : 111 MiB (8%)
    Alignment : Split accross interleaves

    Audio #2
    ID : 2
    Format : AC-3
    Format/Info : Audio Coding 3
    Mode extension : CM (complete main)
    Codec ID : 2000
    Duration : 1h 20mn
    Bit rate mode : Constant
    Bit rate : 192 Kbps
    Channel(s) : 2 channels
    Channel positions : Front: L R
    Sampling rate : 48.0 KHz
    Bit depth : 16 bits
    Compression mode : Lossy
    Stream size : 111 MiB (8%)
    Alignment : Split accross interleaves
    Скриншоты:


    © Оформление by Ворон
    pb.wtf



  • Скачать Любопытный Джордж 3 через торрент https://pic1.kartinco.top/images/61/ordi9.jpg Скачать, смотреть онлайн Любопытный Джордж 3 бесплантно в хорошем качестве Описание: Полнометражный мультфильм, созданный по мотивам книги Ханса Аугусто Рея и Маргрет Рей, о приключениях маленькой, очень умной и ... 10 10 10
    Торрент: Зарегистрирован [2015-10-01 16:18] · скачан: 194 раз
    Статус: T временная
    Размер: 1.37 GB
    Как cкачать? Как скачать Любопытный Джордж 3 через торрент | UTorrent

    28-11-2019 20:33  

    Отключить вcю реклaмy на сайте

      Дорогой пользователь! Огромная просьба, поблагодарите релизера, оцените раздачу и оставьте свои комментарий, если Вы скачали Любопытный Джордж 3 через торрент бесплатно!
      Комментировать посты могут только пользователи прошедшие не сложную регистрацию
      Показать сообщения:    

      Любопытный Джордж 3 через торрент
      Скачать бесплатно Любопытный Джордж 3
      Любопытный Джордж 3 скачать торрент
      Любопытный Джордж 3 смотреть онлайн
      Cкачать фильм Любопытный Джордж 3 бесплатно
      Любопытный Джордж 3 скачать торрент в хорошем качестве
      Любопытный Джордж 3 смотреть онлайн бесплатно в хорошем качестве


      Вы не можете начинать темы
      Вы не можете отвечать на сообщения
      Вы не можете редактировать свои сообщения
      Вы не можете удалять свои сообщения
      Вы не можете голосовать в опросах
      Вы не можете прикреплять файлы к сообщениям
      Вы можете скачивать файлы