Ссылка на приватное зеркало нашего сайта всего за 1$. Внимание количество ограничено!!!

2 сезон

iTunes

1 сезон

1

iTunes

iTunes

iTunes

1 сезон

RePack

30

ИГРА 18+

pack

ВАЖНО

!!Акция!!

Alien_RageХит недели

RePack

MK11
pack

Забери бонус

RePack

jed

!!Акция!!

Alien_Rage

RePack

fifa19

RePack

Assassins Creed: Odyssey

RePack

NEED FOR SPEED™ PAYBACK

4 сезон

9 сезон

Бесстыжие 9 сезон

Все сериалы

все сериалы на PB.wtf

RePack

FAR CRY 5
  

Ловушка для кошек / MacskafogГі (Бела Терновски) [1986 г., мультфильм, комедия, криминал, приключения, DVDRip] pb.wtf

Ловушка для кошек через торрент pb.wtf

Размер: 699 MB | Добавлен: 5 лет назад | Торрент скачан:33 раза
Скачать  

02-10-2015 06:47 Ловушка для кошек Скачать торрент  

Ловушка для кошек / MacskafogГі
Год выпуска: 1986
Страна: Венгрия, Канада, Германия (ФРГ)
Жанр: мультфильм, комедия, криминал, приключения
Продолжительность: 96 мин. / 01:36
Субтитры: Отсутствуют

Режиссер: Бела Терновски
Продюссер: -
Сценарий: Йожеф Непп

Бюджет: 2 октября 1986
Премьера в мире: 2 октября 1986

IMDB 8.40 (6857)



В ролях: Миклош Бенедек, Дьюла Бодроги, Илона Береш, Петер Хауманн, Андраш Керн, Ференц Каллаи, Янош Кёрменди, Иштван Мико, Карой Меч, Вера Пап, Александр Белявский, Роман Ткачук, Алла Будницкая, Герман Качин, Валерий Рыжаков

Описание: Кошачьи банды, объединившись в преступные группировки, готовятся к решающей битве с мышами. Мыши, узнав об этом, сначала загрустили, но потом стало известно, что некий профессор Фусимиси изобрел аппарат, позволяющий сделать кошек беспомощными. В путь к профессору отправляется лучший мышиный агент. Коты через своих осведомителей получают сведения об опасности, и за мышиным агентом отправляются крысы-убийцы...

Качество: DVDRip
Формат: AVI
Видео кодек: XviD
Аудио кодек: MP3
Видео: MPEG-4 Visual at 1014 Кбит/сек 640 x 464 (1.379) at 25.000 fps
Аудио#1: MPEG Audio at 128 Кбит/сек 2 канала, 48,0 КГц
скриншот   скриншот   скриншот  





Общее
Полное имя : D:\Закачки\Ловушка для кошек.avi
Формат : AVI
Формат/Информация : Audio Video Interleave
Размер файла : 699 Мбайт
Продолжительность : 1 ч. 24 м.
Общий поток : 1155 Кбит/сек

Видео
Идентификатор : 0
Формат : MPEG-4 Visual
Профиль формата : Advanced Simple@L5
Параметр BVOP формата : 1
Параметр QPel формата : Нет
Параметр GMC формата : Без точки перехода
Параметр матрицы формата : Default (MPEG)
Идентификатор кодека : XVID
Идентификатор кодека/Подсказка : XviD
Продолжительность : 1 ч. 24 м.
Битрейт : 1014 Кбит/сек
Ширина : 640 пикселей
Высота : 464 пикселя
Соотношение сторон : 1,379
Частота кадров : 25,000 кадров/сек
Цветовое пространство : YUV
Субдискретизация насыщенности : 4:2:0
Битовая глубина : 8 бит
Тип развёртки : Прогрессивная
Метод сжатия : С потерями
Бит/(Пиксели*Кадры) : 0.137
Размер потока : 613 Мбайт (88%)
Библиотека кодирования : XviD 1.1.2 (UTC 2006-11-01)

Аудио
Идентификатор : 1
Формат : MPEG Audio
Версия формата : Version 1
Профиль формата : Layer 3
Идентификатор кодека : 55
Идентификатор кодека/Подсказка : MP3
Продолжительность : 1 ч. 24 м.
Продолжительность оригинала : 1 ч. 24 м.
Вид битрейта : Постоянный
Битрейт : 128 Кбит/сек
Каналы : 2 канала
Частота : 48,0 КГц
Метод сжатия : С потерями
Задержка видео : 24 мс.
Размер потока : 77,5 Мбайт (11%)
Выравнивание : Разделение по промежуткам
Продолжительность промежутка : 24 мс. (0,60 видеокадр)


Ловушка для кошек скачать торрент


pb.wtf



Скачать Ловушка для кошек через торрент http://pic.kartinco.top/images/11/ifdp9.jpg Скачать фильм Ловушка для кошек через торрент бесплантно в хорошем качестве Описание: Кошачьи банды, объединившись в преступные группировки, готовятся к решающей битве с мышами. Мыши, узнав об этом, сначала ... 8.2 10 5
Торрент: Зарегистрирован [2015-10-02 06:47] · скачан: 33 раз
Статус: √ проверено
Размер: 699 MB
Как cкачать? Как скачать Ловушка для кошек через торрент | qTorrent

28-11-2019 20:33  

Отключить всю рекламу на сайте

    Дорогой пользователь! Огромная просьба, поблагодарите релизера, оцените раздачу и оставьте свои комментарий, если Вы скачали Ловушка для кошек через торрент бесплатно! Внесите свою лепту в развитие PiratBit!
    Комментировать посты могут только пользователи прошедшие не сложную регистрацию
    Показать сообщения:    

    Ловушка для кошек через торрент
    Скачать бесплатно Ловушка для кошек
    Ловушка для кошек скачать торрент
    Ловушка для кошек смотреть онлайн
    Cкачать фильм Ловушка для кошек бесплатно
    Ловушка для кошек скачать торрент в хорошем качестве
    Ловушка для кошек смотреть онлайн бесплатно в хорошем качестве


    Вы не можете начинать темы
    Вы не можете отвечать на сообщения
    Вы не можете редактировать свои сообщения
    Вы не можете удалять свои сообщения
    Вы не можете голосовать в опросах
    Вы не можете прикреплять файлы к сообщениям
    Вы можете скачивать файлы