новый адрес пиратбит piratbit
Мега распродажа FORZA HORIZON 4 ULTIMATE+ВСЕ DLC+ОНЛАЙН всего за 499р. 349 руб. (супер цена). Внимание количество ограничено!!!

iTunes

1+1

iTunes

мы

iTunes

1

iTunes

Чернобыль

iTunes

Ральф против интернета

Лицензия

ПШазам

Лицензия

Игра престолов

Лицензия

30
pack

ВАЖНО

!!Акция!!

Alien_RageХит недели

RePack

Resident Evil 21

ИГРА 18+

pack

RePack

Metro:Exodus

!!Акция!!

Alien_Rage

RePack

fifa19

RePack

Assassins Creed: Odyssey

RePack

NEED FOR SPEED™ PAYBACK

3 сезон

9 сезон

Бесстыжие 9 сезон

Все сериалы

все сериалы на PB.wtf

RePack

FAR CRY 5
Ребята, катастрофически не хватает 1900р. для оплаты серверов за Октябрь (всвязи с блокировками трафик упал в 3 раза), 1-2р., выручайте.
  

Репортаж с линии огня (Леон Сааков) [1985, СССР, военный, SATRip от AVP Studio] pb.wtf

Репортаж с линии огня через торрент pb.wtf

Размер: 1.09 GB | Добавлен: 4 года 1 мес. назад | Торрент скачан:7 раз
Скачать  

02-10-2015 08:50 Репортаж с линии огня Скачать торрент  

Репортаж с линии огня
Страна: СССР
Производство: Мосфильм

Жанр: военный
Год выпуска: 1985
Продолжительность: 01:10:56

Перевод: Не требуется
Cубтитры: нет
Оригинальная аудиодорожка: русский

Режиссер: Леон Сааков

В ролях:
Игорь Ливанов, Елена Кондратьева, Анатолий Грачёв, Анатолий Кузнецов, Виктор Корешков, Виктор Чеботарёв, Александр Савостьянов, Юрий Гусев, Любовь Соколова, Лилия Макеева...
Полный список актёров

Описание:
Выпускник ВГИКа, оператор кинохроники Владимир Руднев и его помощница Сашенька, ассистентка режиссера Московской студии кинохроники, ведут съемки боевых действий Красной Армии в годы Великой Отечественной войны. Не все получается сразу - у них еще нет опыта. Из огромного потока хроники, снятой на линии огня, они терпеливо и мужественно создают портрет своего современника.

Источник: DVB
Качество видео: SATRip
Формат видео: AVI

Видео: 688x512 (4:3), 25 fps, XviD ~ 1993 kbps avg, 0.226 bit/pixel
Аудио: 48 kHz, Dolby Digital AC3 2.0, 192 kbps

Раздача от:
Общее
Полное имя : Reportazh.s.linii.ognya.1985.SATRip_[New-team]_by_AVP_Studio.avi
Формат : AVI
Формат/Информация : Audio Video Interleave
Размер файла : 1,09 Гбайт
Продолжительность : 1 ч. 10 м.
Общий поток : 2195 Кбит/сек
Программа кодирования : VirtualDubMod 1.5.10.3 | www.virtualdub-fr.org || (build 2550/release)
Библиотека кодирования : VirtualDubMod build 2550/release

Видео
Идентификатор : 0
Формат : MPEG-4 Visual
Профиль формата : Advanced Simple@L5
Параметр BVOP формата : 1
Параметр QPel формата : Нет
Параметр GMC формата : Без точки перехода
Параметр матрицы формата : Выборочная
Идентификатор кодека : XVID
Идентификатор кодека/Подсказка : XviD
Продолжительность : 1 ч. 10 м.
Битрейт : 1993 Кбит/сек
Ширина : 688 пикселей
Высота : 512 пикселей
Соотношение сторон : 4:3
Частота кадров : 25,000 кадров/сек
Цветовое пространство : YUV
Субдискретизация насыщенности : 4:2:0
Битовая глубина : 8 бит
Тип развёртки : Прогрессивная
Метод сжатия : С потерями
Бит/(Пиксели*Кадры) : 0.226
Размер потока : 1011 Мбайт (91%)
Библиотека кодирования : XviD 73

Аудио
Идентификатор : 1
Формат : AC-3
Формат/Информация : Audio Coding 3
Расширение режима : CM (complete main)
Параметр Endianness формата : Big
Идентификатор кодека : 2000
Продолжительность : 1 ч. 10 м.
Вид битрейта : Постоянный
Битрейт : 192 Кбит/сек
Каналы : 2 канала
Расположение каналов : Front: L R
Частота : 48,0 КГц
Метод сжатия : С потерями
Размер потока : 97,4 Мбайт (9%)
Выравнивание : Разделение по промежуткам
Продолжительность промежутка : 40 мс. (1,00 видеокадр)
Время предзагрузки промежутка : 500 мс
pb.wtf



Скачать Репортаж с линии огня через торрент http://i056.radikal.ru/1510/9c/7b8dcdf0b2fd.png Скачать фильм Репортаж с линии огня через торрент бесплантно в хорошем качестве Описание:Выпускник ВГИКа, оператор кинохроники Владимир Руднев и его помощница Сашенька, ассистентка режиссера Московской студии ... 9.3 10 3
Info! Золотая раздача, скачанное не засчитывается.
Торрент: Зарегистрирован [2015-10-02 08:50] · скачан: 7 раз
Статус: √ проверено
Размер: 1.09 GB
Как cкачать? Как скачать Репортаж с линии огня через торрент | qTorrent

% Раздел Тема Автор DL S | L
Кино СССР [ 1.09 GB ] Репортаж с линии огня [1985 СССР военный SATRip-AVC от AVP Studio] AVP Studio Скачать
1 | 0
Кино СССР [ 744 MB ] Репортаж с линии огня [1985 СССР военный SATRip от AVP Studio] AVP Studio Скачать
1 | 0


>> Регистрируемся здесь <<






Отзывы и комментарии о схеме читаем и пишем здесь: ---> Отзывы и комментарии о схеме

Новые благодарочки в телеграм довольных пользователей:
скриншот   скриншот   скриншот   скриншот   скриншот
    Дорогой пользователь! Огромная просьба, поблагодарите релизера, оцените раздачу и оставьте свои комментарий, если Вы скачали Репортаж с линии огня через торрент бесплатно! Внесите свою лепту в развитие PiratBit!
    Комментировать посты могут только пользователи прошедшие не сложную регистрацию
    Показать сообщения:    

    Репортаж с линии огня через торрент
    Скачать бесплатно Репортаж с линии огня
    Репортаж с линии огня скачать торрент
    Репортаж с линии огня смотреть онлайн
    Cкачать фильм Репортаж с линии огня бесплатно
    Репортаж с линии огня скачать торрент в хорошем качестве
    Репортаж с линии огня смотреть онлайн бесплатно в хорошем качестве


    Вы не можете начинать темы
    Вы не можете отвечать на сообщения
    Вы не можете редактировать свои сообщения
    Вы не можете удалять свои сообщения
    Вы не можете голосовать в опросах
    Вы не можете прикреплять файлы к сообщениям
    Вы можете скачивать файлы