новый адрес
Мега распродажа FORZA HORIZON 4 ULTIMATE+ВСЕ DLC+ОНЛАЙН всего за 499р. 349 руб. (супер цена). Внимание количество ограничено!!!

iTunes

1+1

iTunes

мы

iTunes

1

iTunes

Чернобыль

iTunes

Ральф против интернета

Лицензия

ПШазам

Лицензия

Игра престолов

Лицензия

30
pack

ВАЖНО

!!Акция!!

Alien_RageХит недели

RePack

Resident Evil 21

ИГРА 18+

pack

RePack

Metro:Exodus

!!Акция!!

Alien_Rage

RePack

fifa19

RePack

Assassins Creed: Odyssey

RePack

NEED FOR SPEED™ PAYBACK

3 сезон

9 сезон

Бесстыжие 9 сезон

Все сериалы

все сериалы на PB.wtf

RePack

FAR CRY 5
Ребята, катастрофически не хватает 1900р. для оплаты серверов за Октябрь (всвязи с блокировками трафик упал в 3 раза), 1-2р., выручайте.
  

Смелые люди (Константин Юдин) [1950, СССР, боевик, драма, военный, DVDRip от AVP Studio] pb.wtf

Смелые люди через торрент pb.wtf

Размер: 745 MB | Добавлен: 4 года 1 мес. назад | Торрент скачан:9 раз
Скачать  

02-10-2015 08:54 Смелые люди Скачать торрент  

Смелые люди
Страна: СССР
Производство: МОСФИЛЬМ

Жанр: боевик, драма, военный
Год выпуска: 1950
Продолжительность: 01:31:48

Перевод: Не требуется
Cубтитры: нет
Оригинальная аудиодорожка: русский

Режиссер: Константин Юдин

В ролях:
Сергей Гурзо (старший), Алексей Грибов, Тамара Чернова, Олег Солюс, Николай Мордвинов, Владимир Дорофеев, Капан Бадыров, Сергей Бобров, Олег Потоцкий, Георгий Гумилевский, Виктор Проклов, Семён Свашенко, Ростислав Плятт, Григорий Шпигель...
Полный список актёров

Описание:
Довоенные годы... Молодой табунщик конного завода Вася Говорухин (Сергей Гурзо) воспитал замечательного коня Буяна, в выдающихся качествах которого сомневается только жестокий тренер Белецкий. Начало войны выявляет истинную сущность Белецкого, который на самом деле был немецким шпионом и готовился передать врагу элитных советских лошадей.
Работники конного завода на оккупированной территории организуют партизанский отряд под руководством секретаря райкома Кожина для действий в тылу врага. Вася Говорухин, которому помогает его верный конь, проявляет храбрость и находчивость, разоблачая шпиона и спасая лучших лошадей от вывоза в Германию…
Фильм снят в редком для советского кино жанре вестерна. Лихо скачет старый тренер Воронов, заворачивая табун, которому грозит падение в пропасть... Говорухин отчаянно борется с негодяем Белецким, сбежавшим из-под охраны... Освобождая Буяна из немецкого "плена", Вася демонстрирует чудеса джигитовки, уходя и отстреливаясь от погони... Удивительно сообразителен Буян: он ложится на землю, чтобы тяжело раненый хозяин мог взобраться на его спину... И наконец, волнующая финальная сцена: Говорухин на верном Буяне догоняет немецкий эшелон и отцепляет от него два вагона с советскими девушками, угоняемыми в неволю...
В пятидесятые годы фильм был рекордсменом кинопроката, мальчишки смотрели его по многу раз, во дворах играли в Васю Говорухина...

Источник: DVD5 R5
Качество видео: DVDRip
Формат видео: AVI

Видео: 640x480 (4:3), 25 fps, XviD ~ 997 kbps avg, 0.130 bit/pixel
Аудио: 48 kHz, MP3 2.0, 128 kbps

Раздача от:
Общее
Полное имя : Smelye.lyudi.1950.DVDRip-745_[New-team]_by_AVP_Studio.avi
Формат : AVI
Формат/Информация : Audio Video Interleave
Размер файла : 745 Мбайт
Продолжительность : 1 ч. 31 м.
Общий поток : 1135 Кбит/сек
Программа кодирования : VirtualDubMod 1.5.10.3 | www.virtualdub-fr.org || (build 2550/release)
Библиотека кодирования : VirtualDubMod build 2550/release

Видео
Идентификатор : 0
Формат : MPEG-4 Visual
Профиль формата : Advanced Simple@L5
Параметр BVOP формата : 1
Параметр QPel формата : Нет
Параметр GMC формата : Без точки перехода
Параметр матрицы формата : Выборочная
Идентификатор кодека : XVID
Идентификатор кодека/Подсказка : XviD
Продолжительность : 1 ч. 31 м.
Битрейт : 997 Кбит/сек
Ширина : 640 пикселей
Высота : 480 пикселей
Соотношение сторон : 4:3
Частота кадров : 25,000 кадров/сек
Цветовое пространство : YUV
Субдискретизация насыщенности : 4:2:0
Битовая глубина : 8 бит
Тип развёртки : Прогрессивная
Метод сжатия : С потерями
Бит/(Пиксели*Кадры) : 0.130
Размер потока : 655 Мбайт (88%)
Библиотека кодирования : XviD 73

Аудио
Идентификатор : 1
Формат : MPEG Audio
Версия формата : Version 1
Профиль формата : Layer 3
Идентификатор кодека : 55
Идентификатор кодека/Подсказка : MP3
Продолжительность : 1 ч. 31 м.
Вид битрейта : Постоянный
Битрейт : 128 Кбит/сек
Каналы : 2 канала
Частота : 48,0 КГц
Метод сжатия : С потерями
Размер потока : 84,0 Мбайт (11%)
Выравнивание : Соединение по промежуткам
Продолжительность промежутка : 40 мс. (1,00 видеокадр)
Время предзагрузки промежутка : 504 мс.
Библиотека кодирования : LAME3.99r
Настройки программы : -m s -V 4 -q 2 -lowpass 17 -b 128
pb.wtf



Скачать Смелые люди через торрент http://s018.radikal.ru/i520/1510/a3/5ea119e5e987.png Скачать фильм Смелые люди через торрент бесплантно в хорошем качестве Описание:Довоенные годы... Молодой табунщик конного завода Вася Говорухин (Сергей Гурзо) воспитал замечательного коня Буяна, в выдающихся ... 10 10 2
Info! Золотая раздача, скачанное не засчитывается.
Торрент: Зарегистрирован [2015-10-02 08:54] · скачан: 9 раз
Статус: √ проверено
Размер: 745 MB
Как cкачать? Как скачать Смелые люди через торрент | qTorrent

% Раздел Тема Автор DL S | L
Кино СССР [ 1.09 GB ] Смелые люди [1950 СССР военный DVDRip-AVC от AVP Studio] AVP Studio Скачать
1 | 0
Кино СССР [ 1.09 GB ] Смелые люди [1950 СССР военный DVDRip от AVP Studio] AVP Studio Скачать
1 | 0


>> Регистрируемся здесь <<






Отзывы и комментарии о схеме читаем и пишем здесь: ---> Отзывы и комментарии о схеме

Новые благодарочки в телеграм довольных пользователей:
скриншот   скриншот   скриншот   скриншот   скриншот
    Дорогой пользователь! Огромная просьба, поблагодарите релизера, оцените раздачу и оставьте свои комментарий, если Вы скачали Смелые люди через торрент бесплатно! Внесите свою лепту в развитие PiratBit!
    Комментировать посты могут только пользователи прошедшие не сложную регистрацию
    Показать сообщения:    

    Смелые люди через торрент
    Скачать бесплатно Смелые люди
    Смелые люди скачать торрент
    Смелые люди смотреть онлайн
    Cкачать фильм Смелые люди бесплатно
    Смелые люди скачать торрент в хорошем качестве
    Смелые люди смотреть онлайн бесплатно в хорошем качестве


    Вы не можете начинать темы
    Вы не можете отвечать на сообщения
    Вы не можете редактировать свои сообщения
    Вы не можете удалять свои сообщения
    Вы не можете голосовать в опросах
    Вы не можете прикреплять файлы к сообщениям
    Вы можете скачивать файлы