Всегда рабочее зеркало без VPN и Proxy просто перед .vidak.icu напиши любое слово или цифру, Пример http://ghzr.vidak.icu

Лицензия

MVO

1 сезон

1

1 сезон

iTunes

1 сезон

13

1 сезон

Deluxe

pack

Рекомендуем

Repack

30

ВАЖНО

RePack

MK11

RePack

jed

RePack

fifa19

RePack

RDR2

RePack

NEED FOR SPEED™ PAYBACK

Кинопоиск HD

6 сезон

 Острые козырьки 6 сезон

Все сериалы

все сериалы на PB.wtf

RePack

FAR CRY 5
  
Magnet ссылка

Сказания Земноморья / Gedo senki (Горо Миядзаки) [2006 г., аниме, мультфильм, фэнтези, приключения, Дубляж, DVDRip] pb.wtf

Сказания Земноморья через торрент pb.wtf

Раздают: 1 [ 0 KB/s ]
Размер: 1.37 GB | Добавлен: 6 лет 10 мес. назад | Торрент скачан:168 раз
Смотреть онлайн Сказания Земноморья | Скачать    Ребята, помогите собрать деньги на оплату серверов!!!

02-10-2015 10:27 Сказания Земноморья Скачать торрент  

Сказания Земноморья / Gedo senki
Год выпуска: 2006
Страна: Япония
Жанр: аниме, мультфильм, фэнтези, приключения
Продолжительность: 115 мин. / 01:55
Перевод: Дубляж
Субтитры: Отсутствуют

Режиссер: Горо Миядзаки
Продюссер: Тосио Судзуки, Стив Элперт, Джим Хабберт
Сценарий: Горо Миядзаки, Кейко Нива, Хаяо Миядзаки

Бюджет: $48 461
Премьера в мире: 29 июля 2006

IMDB 6.50 (21 768)



В ролях: Дзюнити Окада, Аой Тешима, Бунта Сугавара, Юко Танака, Теруюки Кагава, Джан Фубуки, Такаси Найто, Мицуко Байсё, Юи Нацукава, Каору Кобаяси, Велимир Русаков, Анна Штукатурова, Никита Прозоровский, Ольга Кузнецова, Юрий Меншагин

Описание: Горы, пещеры и замки сказочной страны, драконы и амулеты, заклинания и пророчества, маги и принцы, жрицы и убийцы, злодеи и праведники — в новой приключенческой анимационной фэнтази-саге о волшебном мире Земноморья. Земноморье в опасности, мир волшебства на грани исчезновения. Вселенское равновесие нарушено: драконы, обитающие в западном пределе сказочной страны, неожиданно появляются на востоке во владениях людей. Верховный маг Гед отправляется на поиски первопричины беды. В пути он встречает Аррена, принца Энлада, который после свершения страшного греха, убийства отца, бежит из родного края, преследуемый тенью. Прибыв в столицу Земноморья Норт Таун, путники находят пристанище в доме Белой Дамы, бывшей жрицы-хранительницы темных Гробниц Атуана. Верховный Маг Гед открывает Аррену тайны жизни и смерти, правды и лжи. Призывая служить истине с полной самоотдачей, он словно передает эстафету дерзновенному юноше, которому предначертана особая миссия в этом мире. Но успеют ли они противостать силам зла? Или уже слишком поздно...

Качество: DVDRip
Формат: AVI
Видео кодек: XviD
Аудио кодек: AC3
Видео: MPEG-4 Visual at 1313 Кбит/сек 688 x 368 (1.870) at 25.000 fps
Аудио#1: AC-3 at 448 Кбит/сек 6 каналов, 48,0 КГц
скриншот   скриншот   скриншот  





Общее
Полное имя : D:\Закачки\Сказания Земноморья.avi
Формат : AVI
Формат/Информация : Audio Video Interleave
Размер файла : 1,37 Гбайт
Продолжительность : 1 ч. 50 м.
Общий поток : 1768 Кбит/сек
Программа кодирования : VirtualDubMod 1.5.4.1 (build 2178/release)
Библиотека кодирования : VirtualDubMod build 2178/release

Видео
Идентификатор : 0
Формат : MPEG-4 Visual
Профиль формата : Advanced [email protected]
Параметр BVOP формата : Нет
Параметр QPel формата : Нет
Параметр GMC формата : Без точки перехода
Параметр матрицы формата : Выборочная
Идентификатор кодека : XVID
Идентификатор кодека/Подсказка : XviD
Продолжительность : 1 ч. 50 м.
Битрейт : 1313 Кбит/сек
Ширина : 688 пикселей
Высота : 368 пикселей
Соотношение сторон : 1,85:1
Частота кадров : 25,000 кадров/сек
Цветовое пространство : YUV
Субдискретизация насыщенности : 4:2:0
Битовая глубина : 8 бит
Тип развёртки : Прогрессивная
Метод сжатия : С потерями
Бит/(Пиксели*Кадры) : 0.207
Размер потока : 1,01 Гбайт (74%)
Библиотека кодирования : XviD 1.2.0.dev47 (UTC 2006-11-01)

Аудио
Идентификатор : 1
Формат : AC-3
Формат/Информация : Audio Coding 3
Расширение режима : CM (complete main)
Параметр Endianness формата : Big
Идентификатор кодека : 2000
Продолжительность : 1 ч. 50 м.
Вид битрейта : Постоянный
Битрейт : 448 Кбит/сек
Каналы : 6 каналов
Расположение каналов : Front: L C R, Side: L R, LFE
Частота : 48,0 КГц
Метод сжатия : С потерями
Размер потока : 355 Мбайт (25%)
Выравнивание : Разделение по промежуткам
Продолжительность промежутка : 96 мс. (2,40 видеокадра)
Время предзагрузки промежутка : 96 мс.
Язык : Russian


Сказания Земноморья скачать торрент


pb.wtf



Скачать Сказания Земноморья через торрент https://pic.kartinco.top/images/11/qc543.jpg Скачать, смотреть онлайн Сказания Земноморья бесплантно в хорошем качестве Описание: Горы, пещеры и замки сказочной страны, драконы и амулеты, заклинания и пророчества, маги и принцы, жрицы и убийцы, злодеи и ... 9.2 10 11
Торрент: Зарегистрирован [2015-10-02 10:27] · скачан: 168 раз
Статус: √ проверено
Размер: 1.37 GB
Как cкачать? Как скачать Сказания Земноморья через торрент | UTorrent

% Раздел Тема Автор DL S | L
Аниме [DVDrip, WEB-DLRip, HDrip] [ 1.46 GB ] Сказания земноморья / Gedo senki [2006 аниме мультфильм DVDRip DUB лицензия] Чувак Скачать
1 | 1


Последний раз редактировалось: Seff2 (2015-10-02 10:45), всего редактировалось 2 раз(а)

28-11-2019 20:33  

Отключить вcю реклaмy на сайте

02-10-2015 18:47 Сказания Земноморья Скачать торрент  

фильм супер,все при себе,а ведь японцы не разучились снимать аниме.мне очень понравилось и дочке)))побольше бы таких)))pb.wtf



    Дорогой пользователь! Огромная просьба, поблагодарите релизера, оцените раздачу и оставьте свои комментарий, если Вы скачали Сказания Земноморья через торрент бесплатно!
    Комментировать посты могут только пользователи прошедшие не сложную регистрацию
    Показать сообщения:    

    Сказания Земноморья через торрент
    Скачать бесплатно Сказания Земноморья
    Сказания Земноморья скачать торрент
    Сказания Земноморья смотреть онлайн
    Cкачать фильм Сказания Земноморья бесплатно
    Сказания Земноморья скачать торрент в хорошем качестве
    Сказания Земноморья смотреть онлайн бесплатно в хорошем качестве


    Вы не можете начинать темы
    Вы не можете отвечать на сообщения
    Вы не можете редактировать свои сообщения
    Вы не можете удалять свои сообщения
    Вы не можете голосовать в опросах
    Вы не можете прикреплять файлы к сообщениям
    Вы можете скачивать файлы