Аватар: Путь воды

Лицензия

Сансара

1 сезон

скачать смотреть онлайн John Wick Chapter 4

MVO

Крик 6

Дубляж

13 клиническая

3 сезон

Восстание зловещих мертвецов

Дубляж

Одни из нас

Дубляж

Dead Island 2 Gold

Gold

Deluxe

Deluxe

pack

Рекомендуем

ВАЖНО

ВАЖНО

30

Repack

The Lord of the Rings: Gollum

Лицензия

jed

RePack

nioh2

RePack

RDR2

RePack

NEED FOR SPEED™ PAYBACK

RePack

скачать торрент

Кинопоиск HD

Острые козырьки 6 сезон

6 сезон

FAR CRY 6

RePack

скачать торрент

Лицензия

скачать торрент

MVO

1

1 сезон

скачать торрент

1 сезон

скачать торрент

Лицензия

  

Апостол / O Apóstolo (Фернандо Кортисо) [2012, мультфильм, ужасы, WEB-DL 1080p, Дубляж] / Чистый звук

Апостол через торрент pb.wtf

Размер: 3.15 GB | Добавлен: 7 лет 7 мес. назад | Торрент скачан:201 раз
Смотреть онлайн | Скачать | Поддержите нас   

02-10-2015 17:35 Апостол Скачать торрент  

Апостол / O Apóstolo


ИНФОРМАЦИЯ:
Год выпуска:2012
Страна: Испания
Жанр: мультфильм, ужасы
Продолжительность: 01:21:07
Перевод: Дубляж - [Чистый звук]
Режиссер: Фернандо Кортисо

В Ролях:


Карлос Бланко (Ramón, озвучка), Хосе Мануэль Ольвейра «Пико» (Don Cesáreo, озвучка), Пол Нэши (Arcipreste, озвучка), Хорхе Санс (Pablo, озвучка), Сельсо Бугальо (Celso, озвучка), Джеральдин Чаплин (Dorinda, озвучка), Мануэль Манкинья (Atilano, озвучка), Луис Тосар (Xavier, озвучка), Педро Алонсо (Peregrino, озвучка), Изабель Бланко (Peregrina, озвучка), Атилано Франко (Primitivo, озвучка), Джакобо Рей (Doctor, озвучка)

Описание:
Преступник, сбежавший из тюрьмы, добирается до отдаленной деревни, чтобы забрать награбленное добро. Однако, то, что он находит, сулит ему несчастья намного более серьезные, чем те, которые он пережил.

  • Мировая премьера:27 апреля 2012

    ТЕХ.ДАННЫЕ:
    Качество: WEB-DL 1080p
    Формат: MKV
    Видео: AVC, 1920x1024 (1.875), 5120 kbps, 25 fps, 0,104 bpp
    Аудио: русский / AC3 / 2.0 / 48 kHz / 448 kbps / 16 bit ||


    General
    Unique ID : 229624654728777027836738641911914113724 (0xACC0198FD8B343C9A09DCE05CE4B2ABC)
    Complete name : D:\Торенты\Ap0st0l.2012.D.WEBDL.1080p.mkv
    Format : Matroska
    Format version : Version 4 / Version 2
    File size : 3.15 GiB
    Duration : 1h 21mn
    Overall bit rate : 5 558 Kbps
    Encoded date : UTC 2015-10-02 13:28:31
    Writing application : mkvmerge v6.8.0 ('Theme for Great Cities') 64bit built on Mar 2 2014 21:34:26
    Writing library : libebml v1.3.0 + libmatroska v1.4.1

    Video
    ID : 1
    Format : AVC
    Format/Info : Advanced Video Codec
    Format profile : [email protected]
    Format settings, CABAC : Yes
    Format settings, ReFrames : 4 frames
    Codec ID : V_MPEG4/ISO/AVC
    Duration : 1h 21mn
    Bit rate : 5 120 Kbps
    Width : 1 920 pixels
    Height : 1 024 pixels
    Display aspect ratio : 1.875
    Frame rate mode : Variable
    Frame rate : 25.000 fps
    Color space : YUV
    Chroma subsampling : 4:2:0
    Bit depth : 8 bits
    Scan type : Progressive
    Bits/(Pixel*Frame) : 0.104
    Stream size : 2.83 GiB (90%)
    Writing library : x264 core 142
    Encoding settings : cabac=1 / ref=3 / deblock=1:0:0 / analyse=0x3:0x113 / me=hex / subme=7 / psy=1 / psy_rd=1.00:0.00 / mixed_ref=1 / me_range=16 / chroma_me=1 / trellis=1 / 8x8dct=1 / cqm=0 / deadzone=21,11 / fast_pskip=1 / chroma_qp_offset=-2 / threads=36 / lookahead_threads=6 / sliced_threads=0 / nr=0 / decimate=1 / interlaced=0 / bluray_compat=0 / constrained_intra=0 / bframes=6 / b_pyramid=2 / b_adapt=1 / b_bias=0 / direct=1 / weightb=1 / open_gop=0 / weightp=2 / keyint=200 / keyint_min=20 / scenecut=0 / intra_refresh=0 / rc_lookahead=40 / rc=2pass / mbtree=1 / bitrate=5120 / ratetol=1.0 / qcomp=0.60 / qpmin=0 / qpmax=69 / qpstep=4 / cplxblur=20.0 / qblur=0.5 / vbv_maxrate=7680 / vbv_bufsize=20480 / nal_hrd=none / filler=0 / ip_ratio=1.40 / aq=1:1.00
    Language : English
    Default : Yes
    Forced : No

    Audio
    ID : 2
    Format : AC-3
    Format/Info : Audio Coding 3
    Mode extension : CM (complete main)
    Codec ID : A_AC3
    Duration : 1h 21mn
    Bit rate mode : Constant
    Bit rate : 448 Kbps
    Channel(s) : 2 channels
    Channel positions : Front: L R
    Sampling rate : 48.0 KHz
    Bit depth : 16 bits
    Compression mode : Lossy
    Stream size : 260 MiB (8%)
    Language : Russian
    Default : Yes
    Forced : Yes
    Скриншоты:




  • Скачать Апостол через торрент http://i6.imageban.ru/out/2015/10/02/746587fdd1d7bb0ae3134992a6dddeaa.jpg Скачать, смотреть онлайн Апостол бесплатно в хорошем качестве Описание: Преступник, сбежавший из тюрьмы, добирается до отдаленной деревни, чтобы забрать награбленное добро. Однако, то, что он находит, ... 9.1 10 10
    Info! Золотая раздача, скачанное не засчитывается.
    Торрент: Зарегистрирован [2015-10-02 17:35] · скачан: 201 раз
    Статус: T временная
    Размер: 3.15 GB
    Как cкачать? Как скачать Апостол через торрент | UTorrent

    % Раздел Тема Автор DL S | L
    T Иностранные мультфильмы [ 1.37 GB ] Апостол / O Apóstolo | Дубляж | DLRip, Дубляж Ворон Скачать
    1 | 0
    T Иностранные мультфильмы [ 1.67 GB ] Апостол / O Apóstolo | DUB - Чистый звук | DLRip-AVC Newton5 Скачать
    1 | 0

    28-11-2019 20:33  


    Отключить вcю реклaмy на сайте, в т.ч. и в плеере онлайн просмотра!

    20-03-2023 18:36 Апостол Скачать торрент  

    Можно пиров дать?



      Дорогой пользователь! Огромная просьба, поблагодарите релизера, оцените раздачу и оставьте свои комментарий, если Вы скачали Апостол через торрент бесплатно!!
      Комментировать посты могут только пользователи прошедшие не сложную регистрацию
      Показать сообщения:    


      Апостол через торрент
      Скачать бесплатно Апостол
      Апостол скачать торрент
      Апостол смотреть онлайн
      Cкачать фильм Апостол бесплатно
      Апостол скачать торрент в хорошем качестве
      Апостол смотреть онлайн бесплатно в хорошем качестве
      Вы не можете начинать темы
      Вы не можете отвечать на сообщения
      Вы не можете редактировать свои сообщения
      Вы не можете удалять свои сообщения
      Вы не можете голосовать в опросах
      Вы не можете прикреплять файлы к сообщениям
      Вы можете скачивать файлы