Ссылка на приватное зеркало всего за 1$. Внимание количество ограничено!!!

iTunes

iTunes

iTunes

1

iTunes

iTunes

iTunes

iTunes

iTunes

30
pack

$ от Little Big

ВАЖНО

!!Акция!!

Alien_RageХит недели

RePack

Resident Evil 21

ИГРА 18+

pack

RePack

jed

!!Акция!!

Alien_Rage

RePack

fifa19

RePack

Assassins Creed: Odyssey

RePack

NEED FOR SPEED™ PAYBACK

4 сезон

9 сезон

Бесстыжие 9 сезон

Все сериалы

все сериалы на PB.wtf

RePack

FAR CRY 5
  

Маруся / Marussia (Эва Перволовичи) [2013, Драма, WEB-DL 1080p] MVO pb.wtf

Маруся через торрент pb.wtf

Размер: 3.1 GB | Добавлен: 4 года 9 мес. назад | Торрент скачан:28 раз
Скачать  

03-10-2015 03:00 Маруся Скачать торрент  

Название: Маруся

Оригинальное название: Marussia

Год выпуска: 2013

Жанр: Драма

Продолжительность: 01:19:58

Озвучивание: Профессиональное (многоголосое) [Официальное]

Выпущено: Франция, Россия, KinoElektron, CTB Film Company

Режиссер: Эва Перволовичи

В ролях: Динара Друкарова, Мари-Изабель Стейнман, Георгий Баблуани, Дуня Сычева, Алексей Агеев, Мадалина Константин, Шарунас Бартас, Дени, Лаван, Константин Лунарин, Софи Вербек

Описание: Маруся — так зовут маленькую девочку, дочку 38-летней Ларисы, бывшей фотомодели, которая живет во Франции, стране ее мечты, где она так долго и безуспешно ищет мужчину своей мечты. «Ma Roussie» — по-французски «моя Россия». Имя девочки так созвучно с названием ее страны, о которой пятилетняя Маруся почти ничего не помнит, разве что «там много снега, и они едят с бабушкой апельсины только зимой». Ее дом давно уже здесь во Франции, правда, у ее мамы здесь нет ни работы, ни крыши над головой. Иногда они даже не знают, где им переночевать. Но разве это важно? Главное, что они есть друг у друга. Мать и дочь. А значит все будет хорошо, если не сейчас, то в будущем точно.



Качество: WEB-DL 1080p
Формат: MKV
Видео: MPEG-4 AVC, 5120 Кбит/с, 1920x1080, 25,000 кадров/сек

Аудио: AC3, 2 ch, 448 Кбит/с / 48 kHz
Общее
Уникальный идентификатор : 240621153546118121952441684436430150686 (0xB505F2D007061D8B99F0DAF59BBCDC1E)
Полное имя : D:\Торенты\Marysya.2013.P.WEBDL.1080p.mkv
Формат : Matroska
Версия формата : Version 4 / Version 2
Размер файла : 3,10 Гбайт
Продолжительность : 1 ч. 19 м.
Общий поток : 5552 Кбит/сек
Дата кодирования : UTC 2015-10-02 11:09:47
Программа кодирования : mkvmerge v6.8.0 ('Theme for Great Cities') 64bit built on Mar 2 2014 21:34:26
Библиотека кодирования : libebml v1.3.0 + libmatroska v1.4.1

Видео
Идентификатор : 1
Формат : AVC
Формат/Информация : Advanced Video Codec
Профиль формата : High@L4.0
Параметр CABAC формата : Да
Параметр ReFrames формата : 4 кадра
Идентификатор кодека : V_MPEG4/ISO/AVC
Продолжительность : 1 ч. 19 м.
Битрейт : 5120 Кбит/сек
Ширина : 1920 пикселей
Высота : 1080 пикселей
Соотношение сторон : 16:9
Режим частоты кадров : Постоянный
Частота кадров : 25,000 кадров/сек
Цветовое пространство : YUV
Субдискретизация насыщенности : 4:2:0
Битовая глубина : 8 бит
Тип развёртки : Прогрессивная
Бит/(Пиксели*Кадры) : 0.099
Размер потока : 2,79 Гбайт (90%)
Библиотека кодирования : x264 core 142
Настройки программы : cabac=1 / ref=3 / deblock=1:0:0 / analyse=0x3:0x113 / me=hex / subme=7 / psy=1 / psy_rd=1.00:0.00 / mixed_ref=1 / me_range=16 / chroma_me=1 / trellis=1 / 8x8dct=1 / cqm=0 / deadzone=21,11 / fast_pskip=1 / chroma_qp_offset=-2 / threads=8 / lookahead_threads=1 / sliced_threads=0 / nr=0 / decimate=1 / interlaced=0 / bluray_compat=0 / constrained_intra=0 / bframes=6 / b_pyramid=2 / b_adapt=1 / b_bias=0 / direct=1 / weightb=1 / open_gop=0 / weightp=2 / keyint=200 / keyint_min=20 / scenecut=0 / intra_refresh=0 / rc_lookahead=40 / rc=2pass / mbtree=1 / bitrate=5120 / ratetol=1.0 / qcomp=0.60 / qpmin=0 / qpmax=69 / qpstep=4 / cplxblur=20.0 / qblur=0.5 / vbv_maxrate=7680 / vbv_bufsize=20480 / nal_hrd=none / filler=0 / ip_ratio=1.40 / aq=1:1.00
Язык : English
Default : Да
Forced : Нет

Аудио
Идентификатор : 2
Формат : AC-3
Формат/Информация : Audio Coding 3
Расширение режима : CM (complete main)
Параметр Endianness формата : Big
Идентификатор кодека : A_AC3
Продолжительность : 1 ч. 19 м.
Вид битрейта : Постоянный
Битрейт : 448 Кбит/сек
Каналы : 2 канала
Расположение каналов : Front: L R
Частота : 48,0 КГц
Битовая глубина : 16 бит
Метод сжатия : С потерями
Размер потока : 256 Мбайт (8%)
Язык : Russian
Default : Да
Forced : Да
pb.wtf



Скачать Маруся через торрент http://s018.radikal.ru/i509/1510/6c/4432175e6e81.jpg Скачать фильм Маруся через торрент бесплантно в хорошем качестве Описание: Маруся — так зовут маленькую девочку, дочку 38-летней Ларисы, бывшей фотомодели, которая живет во Франции, стране ее мечты, где ... 8.5 10 6
Info! Золотая раздача, скачанное не засчитывается.
Торрент: Зарегистрирован [2015-10-03 03:00] · скачан: 28 раз
Статус: T временная
Размер: 3.1 GB
Как cкачать? Как скачать Маруся через торрент | qTorrent

% Раздел Тема Автор DL S | L
Фильмы 2013 [DVDrip, WEB-DLRip, HDrip] [ 1.37 GB ] Маруся / Marussia [2013 WEB-DLRip] MVO Ворон Скачать
1 | 0

28-11-2019 20:33  

Отключить всю рекламу на сайте

    Дорогой пользователь! Огромная просьба, поблагодарите релизера, оцените раздачу и оставьте свои комментарий, если Вы скачали Маруся через торрент бесплатно! Внесите свою лепту в развитие PiratBit!
    Комментировать посты могут только пользователи прошедшие не сложную регистрацию
    Показать сообщения:    

    Маруся через торрент
    Скачать бесплатно Маруся
    Маруся скачать торрент
    Маруся смотреть онлайн
    Cкачать фильм Маруся бесплатно
    Маруся скачать торрент в хорошем качестве
    Маруся смотреть онлайн бесплатно в хорошем качестве


    Вы не можете начинать темы
    Вы не можете отвечать на сообщения
    Вы не можете редактировать свои сообщения
    Вы не можете удалять свои сообщения
    Вы не можете голосовать в опросах
    Вы не можете прикреплять файлы к сообщениям
    Вы можете скачивать файлы