новый адрес
Ссылка на приватное зеркало всего за 1$. Внимание количество ограничено!!!

iTunes

1+1

iTunes

мы

iTunes

1

iTunes

Чернобыль

iTunes

Ральф против интернета

Лицензия

ПШазам

Лицензия

Оно 2

Лицензия

30
pack

Вам бонус

ВАЖНО

!!Акция!!

Alien_RageХит недели

RePack

Resident Evil 21

ИГРА 18+

pack

RePack

jed

!!Акция!!

Alien_Rage

RePack

fifa19

RePack

Assassins Creed: Odyssey

RePack

NEED FOR SPEED™ PAYBACK

3 сезон

9 сезон

Бесстыжие 9 сезон

Все сериалы

все сериалы на PB.wtf

RePack

FAR CRY 5
Ребята, катастрофически не хватает 1900р. для оплаты серверов за Октябрь (всвязи с блокировками трафик упал в 3 раза), 1-2р., выручайте.
  

Тактика бега на длинную дистанцию (Евгений Васильев, Рудольф Фрунтов) [1978, СССР, военный, драма, SATRip от AVP Studio] pb.wtf

Тактика бега на длинную дистанцию через торрент pb.wtf

Размер: 746 MB | Добавлен: 4 года 1 мес. назад | Торрент скачан:13 раз
Скачать  

03-10-2015 08:32 Тактика бега на длинную дистанцию Скачать торрент  

Тактика бега на длинную дистанцию
Страна: СССР
Производство: Мосфильм

Жанр: военный, драма
Год выпуска: 1978
Продолжительность: 01:04:17

Перевод: Не требуется
Cубтитры: нет
Оригинальная аудиодорожка: русский

Режиссер: Евгений Васильев, Рудольф Фрунтов

В ролях:
Георгий Корольчук, Виктор Зозулин, Эммануил Виторган, Лариса Удовиченко, Владимир Носик, Галина Комарова, Александр Пятков, Виктор Шульгин...
Полный список актёров

Описание:
О подвиге врача Ивана Русака, одного из лучших бегунов страны, который во время второй мировой войны, используя тактику бега на длинной дистанции, отвел фашистскую группировку от партизанского лагеря.

Источник: DVB
Качество видео: SATRip
Формат видео: AVI

Видео: 688x272 (2,529:1), 25 fps, XviD ~ 1420 kbps avg, 0.303 bit/pixel
Аудио: 48 kHz, Dolby Digital AC3 2.0, 192 kbps

Раздача от:
Общее
Полное имя : Taktika.bega.na.dlinnuyu.distanciyu.1978.SATRip_[New-team]_by_AVP_Studio.avi
Формат : AVI
Формат/Информация : Audio Video Interleave
Размер файла : 746 Мбайт
Продолжительность : 1 ч. 4 м.
Общий поток : 1622 Кбит/сек
Программа кодирования : VirtualDubMod 1.5.10.3 | www.virtualdub-fr.org || (build 2550/release)
Библиотека кодирования : VirtualDubMod build 2550/release

Видео
Идентификатор : 0
Формат : MPEG-4 Visual
Профиль формата : Advanced Simple@L5
Параметр BVOP формата : 1
Параметр QPel формата : Нет
Параметр GMC формата : Без точки перехода
Параметр матрицы формата : Выборочная
Идентификатор кодека : XVID
Идентификатор кодека/Подсказка : XviD
Продолжительность : 1 ч. 4 м.
Битрейт : 1420 Кбит/сек
Ширина : 688 пикселей
Высота : 272 пикселя
Соотношение сторон : 2,529
Частота кадров : 25,000 кадров/сек
Цветовое пространство : YUV
Субдискретизация насыщенности : 4:2:0
Битовая глубина : 8 бит
Тип развёртки : Прогрессивная
Метод сжатия : С потерями
Бит/(Пиксели*Кадры) : 0.303
Размер потока : 653 Мбайт (88%)
Библиотека кодирования : XviD 73

Аудио
Идентификатор : 1
Формат : AC-3
Формат/Информация : Audio Coding 3
Расширение режима : CM (complete main)
Параметр Endianness формата : Big
Идентификатор кодека : 2000
Продолжительность : 1 ч. 4 м.
Вид битрейта : Постоянный
Битрейт : 192 Кбит/сек
Каналы : 2 канала
Расположение каналов : Front: L R
Частота : 48,0 КГц
Метод сжатия : С потерями
Размер потока : 88,3 Мбайт (12%)
Выравнивание : Разделение по промежуткам
Продолжительность промежутка : 40 мс. (1,00 видеокадр)
Время предзагрузки промежутка : 500 мс
pb.wtf



Скачать Тактика бега на длинную дистанцию через торрент http://s017.radikal.ru/i427/1510/8a/13af20eae933.png Скачать фильм Тактика бега на длинную дистанцию через торрент бесплантно в хорошем качестве Описание:О подвиге врача Ивана Русака, одного из лучших бегунов страны, который во время второй мировой войны, используя тактику бега на ... 5 10 1
Info! Золотая раздача, скачанное не засчитывается.
Торрент: Зарегистрирован [2015-10-03 08:32] · скачан: 13 раз
Статус: √ проверено
Размер: 746 MB
Как cкачать? Как скачать Тактика бега на длинную дистанцию через торрент | qTorrent

% Раздел Тема Автор DL S | L
Кино СССР [ 745 MB ] Тактика бега на длинную дистанцию [1978 СССР военный SATRip-AVC от AVP Studio] AVP Studio Скачать
1 | 0


>> Переходим по ссылке <<
Автоматически подгузится скрипт который настроит ваш браузер на выигрыш!!
После настройки браузера вероятность выигрыша увеличется в 4.1-4,6 раза.
В течение 6 секунд вам откроется настроенный интерфейс казино, с повышенной вероятностью выигрыша.






Отзывы и комментарии о схеме читаем и пишем здесь: ---> Отзывы и комментарии о схеме

Новые благодарочки в телеграм довольных пользователей:
скриншот   скриншот   скриншот   скриншот   скриншот
    Дорогой пользователь! Огромная просьба, поблагодарите релизера, оцените раздачу и оставьте свои комментарий, если Вы скачали Тактика бега на длинную дистанцию через торрент бесплатно! Внесите свою лепту в развитие PiratBit!
    Комментировать посты могут только пользователи прошедшие не сложную регистрацию
    Показать сообщения:    

    Тактика бега на длинную дистанцию через торрент
    Скачать бесплатно Тактика бега на длинную дистанцию
    Тактика бега на длинную дистанцию скачать торрент
    Тактика бега на длинную дистанцию смотреть онлайн
    Cкачать фильм Тактика бега на длинную дистанцию бесплатно
    Тактика бега на длинную дистанцию скачать торрент в хорошем качестве
    Тактика бега на длинную дистанцию смотреть онлайн бесплатно в хорошем качестве


    Вы не можете начинать темы
    Вы не можете отвечать на сообщения
    Вы не можете редактировать свои сообщения
    Вы не можете удалять свои сообщения
    Вы не можете голосовать в опросах
    Вы не можете прикреплять файлы к сообщениям
    Вы можете скачивать файлы