новый адрес пиратбит piratbit
Мега распродажа FORZA HORIZON 4 ULTIMATE+ВСЕ DLC+ОНЛАЙН всего за 499р. 349 руб. (супер цена). Внимание количество ограничено!!!

iTunes

1+1

iTunes

мы

iTunes

1

iTunes

Чернобыль

iTunes

Ральф против интернета

Лицензия

ПШазам

Лицензия

Игра престолов

Лицензия

30
pack

ВАЖНО

!!Акция!!

Alien_RageХит недели

RePack

Resident Evil 21

ИГРА 18+

pack

RePack

Metro:Exodus

!!Акция!!

Alien_Rage

RePack

fifa19

RePack

Assassins Creed: Odyssey

RePack

NEED FOR SPEED™ PAYBACK

3 сезон

9 сезон

Бесстыжие 9 сезон

Все сериалы

все сериалы на PB.wtf

RePack

FAR CRY 5
Ребята, катастрофически не хватает 1900р. для оплаты серверов за Октябрь (всвязи с блокировками трафик упал в 3 раза), 1-2р., выручайте.
  

В мирные дни (Владимир Браун) [1950, СССР, военный, боевик, приключения, DVDRip от AVP Studio] pb.wtf

В мирные дни через торрент pb.wtf

Размер: 745 MB | Добавлен: 4 года 1 мес. назад | Торрент скачан:13 раз
Скачать  

03-10-2015 08:37 В мирные дни Скачать торрент  

В мирные дни
Страна: СССР
Производство: Киевская к/ст

Жанр: военный, боевик, приключения
Год выпуска: 1950
Продолжительность: 01:30:40

Перевод: Не требуется
Cубтитры: нет
Оригинальная аудиодорожка: русский

Режиссер: Владимир Браун

В ролях:
Николай Тимофеев, Аркадий Толбузин, Александр Гречаный, Сергей Гурзо (старший), Андрей Сова, Вячеслав Тихонов, Караман Мгеладзе, Георгий Юматов, Дмитрий Костенко, Виктор Авдюшко, Виктор Добровольский, Виктор Миронов, Леонид Кмит, Элина Быстрицкая, Лидия Драновская, Вероника Васильева, Елена Егорова, Лев Фенин, Михаил Белоусов, Сергей Петров, Олег Смирнов (II), Лаврентий Масоха, Пётр Соболевский, Владимир Борискин...
Полный список актёров

Описание:
Советские подводные лодки уходят в учебное плавание. Это привлекает внимание разведки одной из капиталистических стран. Через некоторое время одна из наших лодок подрывается на мине и ложится на грунт. Четко выполняя приказы командира, экипаж принимается за ликвидацию повреждений...
Но незадолго до этих событий в районе учений появилась и действует другая подводная лодка…

Источник: DVD5 R5
Качество видео: DVDRip
Формат видео: AVI

Видео: 640x480 (4:3), 25 fps, XviD ~ 1011 kbps avg, 0.132 bit/pixel
Аудио: 48 kHz, MP3 2.0, 128 kbps

Раздача от:
Общее
Полное имя : V.mirnye.dni.1950.DVDRip-745_[New-team]_by_AVP_Studio.avi
Формат : AVI
Формат/Информация : Audio Video Interleave
Размер файла : 745 Мбайт
Продолжительность : 1 ч. 30 м.
Общий поток : 1149 Кбит/сек
Программа кодирования : VirtualDubMod 1.5.10.3 | www.virtualdub-fr.org || (build 2550/release)
Библиотека кодирования : VirtualDubMod build 2550/release

Видео
Идентификатор : 0
Формат : MPEG-4 Visual
Профиль формата : Advanced Simple@L5
Параметр BVOP формата : 1
Параметр QPel формата : Нет
Параметр GMC формата : Без точки перехода
Параметр матрицы формата : Выборочная
Идентификатор кодека : XVID
Идентификатор кодека/Подсказка : XviD
Продолжительность : 1 ч. 30 м.
Битрейт : 1011 Кбит/сек
Ширина : 640 пикселей
Высота : 480 пикселей
Соотношение сторон : 4:3
Частота кадров : 25,000 кадров/сек
Цветовое пространство : YUV
Субдискретизация насыщенности : 4:2:0
Битовая глубина : 8 бит
Тип развёртки : Прогрессивная
Метод сжатия : С потерями
Бит/(Пиксели*Кадры) : 0.132
Размер потока : 656 Мбайт (88%)
Библиотека кодирования : XviD 73

Аудио
Идентификатор : 1
Формат : MPEG Audio
Версия формата : Version 1
Профиль формата : Layer 3
Идентификатор кодека : 55
Идентификатор кодека/Подсказка : MP3
Продолжительность : 1 ч. 30 м.
Вид битрейта : Постоянный
Битрейт : 128 Кбит/сек
Каналы : 2 канала
Частота : 48,0 КГц
Метод сжатия : С потерями
Размер потока : 83,0 Мбайт (11%)
Выравнивание : Соединение по промежуткам
Продолжительность промежутка : 40 мс. (1,00 видеокадр)
Время предзагрузки промежутка : 504 мс.
Библиотека кодирования : LAME3.99r
Настройки программы : -m s -V 4 -q 2 -lowpass 17 -b 128
pb.wtf



Скачать В мирные дни через торрент http://s018.radikal.ru/i527/1510/be/ef1784291c02.png Скачать фильм В мирные дни через торрент бесплантно в хорошем качестве Описание:Советские подводные лодки уходят в учебное плавание. Это привлекает внимание разведки одной из капиталистических стран. Через ... 10 10 2
Info! Золотая раздача, скачанное не засчитывается.
Торрент: Зарегистрирован [2015-10-03 08:37] · скачан: 13 раз
Статус: √ проверено
Размер: 745 MB
Как cкачать? Как скачать В мирные дни через торрент | qTorrent

% Раздел Тема Автор DL S | L
Кино СССР [ 1.09 GB ] В мирные дни [1950 СССР военный DVDRip-AVC от AVP Studio] AVP Studio Скачать
1 | 0
Кино СССР [ 1.09 GB ] В мирные дни [1950 СССР военный DVDRip от AVP Studio] AVP Studio Скачать
1 | 0


>> Регистрируемся здесь <<






Отзывы и комментарии о схеме читаем и пишем здесь: ---> Отзывы и комментарии о схеме

Новые благодарочки в телеграм довольных пользователей:
скриншот   скриншот   скриншот   скриншот   скриншот
    Дорогой пользователь! Огромная просьба, поблагодарите релизера, оцените раздачу и оставьте свои комментарий, если Вы скачали В мирные дни через торрент бесплатно! Внесите свою лепту в развитие PiratBit!
    Комментировать посты могут только пользователи прошедшие не сложную регистрацию
    Показать сообщения:    

    В мирные дни через торрент
    Скачать бесплатно В мирные дни
    В мирные дни скачать торрент
    В мирные дни смотреть онлайн
    Cкачать фильм В мирные дни бесплатно
    В мирные дни скачать торрент в хорошем качестве
    В мирные дни смотреть онлайн бесплатно в хорошем качестве


    Вы не можете начинать темы
    Вы не можете отвечать на сообщения
    Вы не можете редактировать свои сообщения
    Вы не можете удалять свои сообщения
    Вы не можете голосовать в опросах
    Вы не можете прикреплять файлы к сообщениям
    Вы можете скачивать файлы