Ссылка на приватное зеркало нашего сайта всего за 1$. Внимание количество ограничено!!!

2 сезон

iTunes

1 сезон

1

iTunes

iTunes

iTunes

1 сезон

RePack

30

ИГРА 18+

pack

ВАЖНО

!!Акция!!

Alien_RageХит недели

RePack

MK11
pack

Забери бонус

RePack

jed

!!Акция!!

Alien_Rage

RePack

fifa19

RePack

Assassins Creed: Odyssey

RePack

NEED FOR SPEED™ PAYBACK

4 сезон

9 сезон

Бесстыжие 9 сезон

Все сериалы

все сериалы на PB.wtf

RePack

FAR CRY 5
  

Да, возможно... / Definitely, Maybe (Адам Брукс) [2008, драма, мелодрама, комедия, BDRip 720p by msltel] MVO pb.wtf

Да, возможно... через торрент pb.wtf

Размер: 4.15 GB | Добавлен: 5 лет назад | Торрент скачан:66 раз
Скачать  

03-10-2015 12:53 Да, возможно... Скачать торрент  

Название: Да, возможно...
Оригинальное название: Definitely, Maybe
Год выпуска: 2008
Страна: США
Жанр: драма, мелодрама, комедия
Продолжительность: 01:51:40
Перевод: профессиональный многоголосый

Режиссёр: Адам Брукс

В ролях: Райан Рейнольдс, Эбигейл Бреслин, Элизабет Бэнкс, Айла Фишер, Рэйчел Вайз, Дерек Люк, Адам Феррара, Дэниэл Эрик Голд, Кевин Клайн, Нестор Серрано

Описание: Никогда не поздно вернуться назад и, возможно, обрести счастье. Уилл Хэйс папаша, слегка за тридцать. Его развод в самом разгаре, когда десятилетняя дочь Майя начинает задавать отцу вопросы о его жизни до брака. Уилл рассказывает про свои взлёты и падения - соседка Эмили; лучшая подруга и родственная душа Эйприл; свободолюбивая Саммер. Три романа. Три разбитых сердца. Майя складывает кусочки романтической головоломки, и ей открывается, что любовь не бывает простой, а Уилл понимает, что в делах сердечных никогда не поздно рискнуть ещё раз...



Качество: BDRip 720p Сравнение с исходником
Формат: MKV
Видео: MPEG-4 AVC, 4322 Кбит/с, 1280x546, 23,976 кадра/с
Аудио 1: русский, AC3, 448 kbps, 6 ch, 48 kHz [профессиональный многоголосый]
Аудио 2: английский, AC3, 448 kbps, 6 ch, 48 kHz [оригинал]
Субтитры 1: русские
Субтитры 2: английские
Общее
Уникальный идентификатор : 210821858940350367966993483079205170565 (0x9E9AD027BEB702E69A34F9FF131AAD85)
Полное имя : D:VideoДа, возможно.2008.BDRip.720p.mkv
Формат : Matroska
Версия формата : Version 4 / Version 2
Размер файла : 4,15 Гбайт
Продолжительность : 1 ч. 51 м.
Общий поток : 5324 Кбит/сек
Название фильма : BDRip -- STarankov
Дата кодирования : UTC 2015-10-03 02:00:07
Программа кодирования : mkvmerge v8.2.0 ('World of Adventure') 64bit
Библиотека кодирования : libebml v1.3.1 + libmatroska v1.4.2
DURATION : 01:46:21.212000000
NUMBER_OF_FRAMES : 1797
NUMBER_OF_BYTES : 67696
_STATISTICS_WRITING_APP : mkvmerge v8.2.0 ('World of Adventure') 64bit
_STATISTICS_WRITING_DATE_UTC : 2015-10-03 02:00:07
_STATISTICS_TAGS : BPS DURATION NUMBER_OF_FRAMES NUMBER_OF_BYTES

Видео
Идентификатор : 1
Формат : AVC
Формат/Информация : Advanced Video Codec
Профиль формата : High@L4.1
Параметр CABAC формата : Да
Параметр ReFrames формата : 9 кадров
Идентификатор кодека : V_MPEG4/ISO/AVC
Продолжительность : 1 ч. 51 м.
Битрейт : 4322 Кбит/сек
Ширина : 1280 пикселей
Высота : 546 пикселей
Соотношение сторон : 2,35:1
Режим частоты кадров : Постоянный
Частота кадров : 23,976 кадра/сек
Цветовое пространство : YUV
Субдискретизация насыщенности : 4:2:0
Битовая глубина : 8 бит
Тип развёртки : Прогрессивная
Бит/(Пиксели*Кадры) : 0.258
Размер потока : 3,37 Гбайт (81%)
Библиотека кодирования : x264 core 146 r2538 121396c
Настройки программы : cabac=1 / ref=9 / deblock=1:-1:-1 / analyse=0x3:0x113 / me=umh / subme=10 / psy=1 / psy_rd=1.00:0.15 / mixed_ref=1 / me_range=32 / chroma_me=1 / trellis=2 / 8x8dct=1 / cqm=0 / deadzone=21,11 / fast_pskip=1 / chroma_qp_offset=-3 / threads=6 / lookahead_threads=1 / sliced_threads=0 / nr=0 / decimate=1 / interlaced=0 / bluray_compat=0 / constrained_intra=0 / bframes=11 / b_pyramid=2 / b_adapt=2 / b_bias=0 / direct=1 / weightb=1 / open_gop=0 / weightp=2 / keyint=230 / keyint_min=23 / scenecut=40 / intra_refresh=0 / rc_lookahead=40 / rc=crf / mbtree=0 / crf=18.5 / qcomp=0.60 / qpmin=0 / qpmax=69 / qpstep=4 / vbv_maxrate=40000 / vbv_bufsize=50000 / crf_max=0.0 / nal_hrd=none / filler=0 / ip_ratio=1.40 / pb_ratio=1.30 / aq=1:1.00
Язык : English
Default : Да
Forced : Нет
DURATION : 01:51:40.694000000
NUMBER_OF_FRAMES : 160656
NUMBER_OF_BYTES : 3707185924
_STATISTICS_WRITING_APP : mkvmerge v8.2.0 ('World of Adventure') 64bit
_STATISTICS_WRITING_DATE_UTC : 2015-10-03 02:00:07
_STATISTICS_TAGS : BPS DURATION NUMBER_OF_FRAMES NUMBER_OF_BYTES

Аудио #1
Идентификатор : 2
Формат : AC-3
Формат/Информация : Audio Coding 3
Расширение режима : CM (complete main)
Параметр Endianness формата : Big
Идентификатор кодека : A_AC3
Продолжительность : 1 ч. 51 м.
Вид битрейта : Постоянный
Битрейт : 448 Кбит/сек
Каналы : 6 каналов
Расположение каналов : Front: L C R, Side: L R, LFE
Частота : 48,0 КГц
Метод сжатия : С потерями
Размер потока : 358 Мбайт (8%)
Заголовок : MVO
Язык : Russian
Default : Да
Forced : Нет

Аудио #2
Идентификатор : 3
Формат : AC-3
Формат/Информация : Audio Coding 3
Расширение режима : CM (complete main)
Параметр Endianness формата : Big
Идентификатор кодека : A_AC3
Продолжительность : 1 ч. 51 м.
Вид битрейта : Постоянный
Битрейт : 448 Кбит/сек
Каналы : 6 каналов
Расположение каналов : Front: L C R, Side: L R, LFE
Частота : 48,0 КГц
Метод сжатия : С потерями
Размер потока : 358 Мбайт (8%)
Заголовок : Original
Язык : English
Default : Нет
Forced : Нет

Текст #1
Идентификатор : 4
Формат : UTF-8
Идентификатор кодека : S_TEXT/UTF8
Идентификатор кодека/Информация : UTF-8 Plain Text
Заголовок : русский
Язык : Russian
Default : Нет
Forced : Нет

Текст #2
Идентификатор : 5
Формат : UTF-8
Идентификатор кодека : S_TEXT/UTF8
Идентификатор кодека/Информация : UTF-8 Plain Text
Заголовок : английский
Default : Нет
Forced : Нет
pb.wtf



Скачать Да, возможно... через торрент http://i70.fastpic.ru/big/2015/1003/61/871e20fa3a113dfabcd5802e19aa4f61.jpg Скачать фильм Да, возможно... через торрент бесплантно в хорошем качестве Описание: Никогда не поздно вернуться назад и, возможно, обрести счастье. Уилл Хэйс папаша, слегка за тридцать. Его развод в самом разгаре, ... 10 10 2
Info! Серебряная раздача, засчитывается только 50% скачанного.
Торрент: Зарегистрирован [2015-10-03 12:53] · скачан: 66 раз
Статус: √ проверено
Размер: 4.15 GB
Как cкачать? Как скачать Да, возможно... через торрент | qTorrent

% Раздел Тема Автор DL S | L
Фильмы 2006-2008 [ 1.46 GB ] Да возможно ... / Да не может быть / Definitely Maybe [2008 BDRip] [MVO] killermax2013 Скачать
1 | 0
Фильмы [HD 720p, 1080p] (Хороший звук DUB, MVO) [ 11.96 GB ] Да возможно... / Definitely Maybe [2008 BDRip 1080p by msltel] MVO msltel Скачать
1 | 0
Фильмы 2006-2008 [ 2.47 GB ] Да возможно... / Definitely Maybe [2008 BDRip AVC by msltel] MVO msltel Скачать
1 | 0
Фильмы [HD 720p, 1080p] (Хороший звук DUB, MVO) [ 4.72 GB ] Да возможно / Да нет наверное / Definitely Maybe [2008 BDRip 720p] MVO + Sub rus + Original Shmel Скачать
1 | 0

28-11-2019 20:33  

Отключить всю рекламу на сайте

03-10-2015 16:09 Да, возможно... Скачать торрент  

А он в дубляже есть?pb.wtf



    Дорогой пользователь! Огромная просьба, поблагодарите релизера, оцените раздачу и оставьте свои комментарий, если Вы скачали Да, возможно... через торрент бесплатно! Внесите свою лепту в развитие PiratBit!
    Комментировать посты могут только пользователи прошедшие не сложную регистрацию
    Показать сообщения:    

    Да, возможно... через торрент
    Скачать бесплатно Да, возможно...
    Да, возможно... скачать торрент
    Да, возможно... смотреть онлайн
    Cкачать фильм Да, возможно... бесплатно
    Да, возможно... скачать торрент в хорошем качестве
    Да, возможно... смотреть онлайн бесплатно в хорошем качестве


    Вы не можете начинать темы
    Вы не можете отвечать на сообщения
    Вы не можете редактировать свои сообщения
    Вы не можете удалять свои сообщения
    Вы не можете голосовать в опросах
    Вы не можете прикреплять файлы к сообщениям
    Вы можете скачивать файлы