Ссылка на приватное зеркало всего за 1$. Внимание количество ограничено!!!

OK

1+1

iTunes

мы

OK

1

WEB-DLRip

Джокер

Пифагор

Ведьмак / The Witcher сериал

iTunes

ПШазам

ОК

Оно 2

iTunes

30
pack

Вам бонус

ВАЖНО

!!Акция!!

Alien_RageХит недели

RePack

Resident Evil 21

ИГРА 18+

pack

RePack

jed

RePack

fifa19

RePack

Assassins Creed: Odyssey

RePack

NEED FOR SPEED™ PAYBACK

4 сезон

9 сезон

Бесстыжие 9 сезон

Все сериалы

все сериалы на PB.wtf

RePack

FAR CRY 5
  

Левша / Southpaw (Антуан Фукуа) [2015, драма, спорт, HDRip-AVC от Ворон] DUB pb.wtf

Левша через торрент pb.wtf

Раздают: 1 [ 0 KB/s ]
Размер: 1.46 GB | Добавлен: 4 года 3 мес. назад | Торрент скачан:156 раз
Скачать  

03-10-2015 15:22 Левша Скачать торрент  


Левша / Southpaw
««Преодолей судьбу»»

ИНФОРМАЦИЯ:
Год выпуска:2015
Страна: США
Жанр: драма, спорт
Продолжительность: 02:03:48
Перевод: Дубляж - [Лицензия / iTunes]
Режиссер: Антуан Фукуа

В Ролях:


Джейк Джилленхол (Billy Hope), Рэйчел МакАдамс (Maureen Hope), Форест Уитакер (Tick Wills), Уна Лоуренс (Leila Hope), Фифти Сент (Jordan Mains), Скайлан Брукс (Hoppy), Наоми Харрис (Angela Rivera), Виктор Ортис (Ramone), Бо Напп (Jon Jon), Мигель Гомес (Miguel «Magic» Escobar), Доминик Колон (Mikey), Хосе Карабалло (Eli Frost)

Описание:
У боксера Билли Хоупа все было прекрасно: звание чемпиона, красавица-жена и любимая дочка. Но фортуна отворачивается от него: при трагических обстоятельствах погибает любимая жена, дисквалификация на ринге, нулевые доходы, суд лишает его родительских прав... Хоуп должен отстоять звание чемпиона и вернуть дочь. Есть ли у Хоупа шансы на победу? Все решит его знаменитый хук левой...

  • Мировая премьера:15 июня 2015

    ТЕХ.ДАННЫЕ:
    Качество: HDRip-AVCАвтор рипа: by Ворон
    Формат: MKV
    Видео: AVC, 1024x422 , 1303 kbps, 23,976 fps,
    Аудио: AC3 / 5.1 / 48 kHz / 384 kbps / 16 bit


    General
    Unique ID : 175756378534254357117429472091598990000 (0x8439727DE70252CD885D53CEA887AAB0)
    Complete name : D:\Торенты\Раздачи\Левша_ 2015_HDRip-AVC_by Ворон .mkv
    Format : Matroska
    Format version : Version 4 / Version 2
    File size : 1.46 GiB
    Duration : 2h 3mn
    Overall bit rate : 1 689 Kbps
    Movie name : Рип by Ворон для ПиратБит.Нет
    Encoded date : UTC 2015-10-03 15:08:16
    Writing application : mkvmerge v7.4.0 ('Circles') 64bit built on Dec 12 2014 12:19:56
    Writing library : libebml v1.3.0 + libmatroska v1.4.1
    DURATION : 02:03:40.800000000
    NUMBER_OF_FRAMES : 231900
    NUMBER_OF_BYTES : 356198400
    _STATISTICS_WRITING_APP : mkvmerge v7.4.0 ('Circles') 64bit built on Dec 12 2014 12:19:56
    _STATISTICS_WRITING_DATE_UTC : 2015-10-03 15:08:16
    _STATISTICS_TAGS : BPS DURATION NUMBER_OF_FRAMES NUMBER_OF_BYTES
    Attachment : Yes

    Video
    ID : 1
    Format : AVC
    Format/Info : Advanced Video Codec
    Format profile : High@L4.1
    Format settings, CABAC : Yes
    Format settings, ReFrames : 4 frames
    Codec ID : V_MPEG4/ISO/AVC
    Duration : 2h 3mn
    Bit rate : 1 303 Kbps
    Width : 1 024 pixels
    Height : 422 pixels
    Display aspect ratio : 2.40:1
    Frame rate : 23.976 fps
    Color space : YUV
    Chroma subsampling : 4:2:0
    Bit depth : 8 bits
    Scan type : Progressive
    Bits/(Pixel*Frame) : 0.126
    Stream size : 1.10 GiB (75%)
    Title : Рип by Ворон для ПиратБит.Нет
    Writing library : x264 core 125 r2208 d9d2288
    Encoding settings : cabac=1 / ref=4 / deblock=1:-2:-2 / analyse=0x3:0x133 / me=umh / subme=9 / psy=1 / psy_rd=1.00:0.10 / mixed_ref=1 / me_range=16 / chroma_me=1 / trellis=2 / 8x8dct=1 / cqm=0 / deadzone=21,11 / fast_pskip=0 / chroma_qp_offset=-3 / threads=6 / lookahead_threads=1 / sliced_threads=0 / nr=0 / decimate=0 / interlaced=0 / bluray_compat=0 / constrained_intra=0 / bframes=7 / b_pyramid=2 / b_adapt=2 / b_bias=0 / direct=3 / weightb=1 / open_gop=0 / weightp=2 / keyint=250 / keyint_min=23 / scenecut=40 / intra_refresh=0 / rc=2pass / mbtree=0 / bitrate=1303 / ratetol=1.0 / qcomp=0.60 / qpmin=0 / qpmax=69 / qpstep=4 / cplxblur=20.0 / qblur=0.5 / ip_ratio=1.40 / pb_ratio=1.30 / aq=1:0.80
    Language : Russian
    Default : Yes
    Forced : No

    Audio
    ID : 2
    Format : AC-3
    Format/Info : Audio Coding 3
    Mode extension : CM (complete main)
    Codec ID : A_AC3
    Duration : 2h 3mn
    Bit rate mode : Constant
    Bit rate : 384 Kbps
    Channel(s) : 6 channels
    Channel positions : Front: L C R, Side: L R, LFE
    Sampling rate : 48.0 KHz
    Bit depth : 16 bits
    Compression mode : Lossy
    Stream size : 340 MiB (23%)
    Title : Дубляж
    Default : Yes
    Forced : Yes
    Скриншоты:


    © Оформление by Ворон
    pb.wtf



  • Скачать Левша через торрент http://pic.kartinco.top/images/6/ordi9.jpg Скачать фильм Левша через торрент бесплантно в хорошем качестве Описание: У боксера Билли Хоупа все было прекрасно: звание чемпиона, красавица-жена и любимая дочка. Но фортуна отворачивается от него: при ... 10 10 7
    Info! Золотая раздача, скачанное не засчитывается.
    Торрент: Зарегистрирован [2015-10-03 15:22] · скачан: 156 раз
    Статус: √ проверено
    Размер: 1.46 GB
    Как cкачать? Как скачать Левша через торрент | qTorrent

    % Раздел Тема Автор DL S | L
    Фильмы 2015 [DVDrip, WEB-DLRip, HDrip] [ 1.46 GB ] Левша / Southpaw [2015 BDRip] DUB Twi7ter Скачать
    2 | 0
    Фильмы 2015 [DVDrip, WEB-DLRip, HDrip] [ 2.18 GB ] Левша / Southpaw [2015 BDRip-AVC от sokol_ok] DUB sokol_ok Скачать
    2 | 0
    Фильмы [HD 720p, 1080p] (Хороший звук DUB, MVO) [ 7.9 GB ] Левша / Southpaw [2015 BDRip 720p] DUB AVO _denis_100 Скачать
    1 | 0
    Фильмы 2015 [DVDrip, WEB-DLRip, HDrip] [ 1.45 GB ] Левша / Southpaw [2015 BDRip-AVC от sokol_ok] DUB sokol_ok Скачать
    2 | 0
    Фильмы 2015 [DVDrip, WEB-DLRip, HDrip] [ 2.18 GB ] Левша / Southpaw [2015 BDRip-AVC] DUB potroks Скачать
    3 | 0
    Фильмы 2015 [DVDrip, WEB-DLRip, HDrip] [ 1.46 GB ] Левша / Southpaw [2015 BDRip-AVC] Dub potroks Скачать
    1 | 0
    Фильмы 2015 [DVDrip, WEB-DLRip, HDrip] [ 2.05 GB ] Левша / Southpaw [2015 HDRip] killermax2013 Скачать
    1 | 0

    28-11-2019 20:33  

    Отключить всю рекламу на сайте

    03-10-2015 15:47 Левша Скачать торрент  

    5555-й мой релиз)= pb.wtf



    04-10-2015 10:50 Левша Скачать торрент  

    Ворон писал(а):

    5555-й мой релиз)=

    КРАСАВА! Поздравления!!
    yespb.wtf
    !Ворон писал(а):

    Спасибо!



      Дорогой пользователь! Огромная просьба, поблагодарите релизера, оцените раздачу и оставьте свои комментарий, если Вы скачали Левша через торрент бесплатно! Внесите свою лепту в развитие PiratBit!
      Комментировать посты могут только пользователи прошедшие не сложную регистрацию
      Показать сообщения:    

      Левша через торрент
      Скачать бесплатно Левша
      Левша скачать торрент
      Левша смотреть онлайн
      Cкачать фильм Левша бесплатно
      Левша скачать торрент в хорошем качестве
      Левша смотреть онлайн бесплатно в хорошем качестве


      Вы не можете начинать темы
      Вы не можете отвечать на сообщения
      Вы не можете редактировать свои сообщения
      Вы не можете удалять свои сообщения
      Вы не можете голосовать в опросах
      Вы не можете прикреплять файлы к сообщениям
      Вы можете скачивать файлы