Ссылка на приватное зеркало нашего сайта всего за 1$. Внимание количество ограничено!!!

2 сезон

iTunes

1 сезон

1

iTunes

iTunes

iTunes

1 сезон

RePack

30

ИГРА 18+

pack

ВАЖНО

!!Акция!!

Alien_RageХит недели

RePack

MK11
pack

Забери бонус

RePack

jed

!!Акция!!

Alien_Rage

RePack

fifa19

RePack

Assassins Creed: Odyssey

RePack

NEED FOR SPEED™ PAYBACK

4 сезон

9 сезон

Бесстыжие 9 сезон

Все сериалы

все сериалы на PB.wtf

RePack

FAR CRY 5
  

Любовь и милосердие / Love & Mercy (Уильям Полад / Bill Pohlad) [2015, США, драма, биография, музыка, BDRip 720p, Дубляж - Лицензия / iTunes] pb.wtf

Любовь и милосердие через торрент pb.wtf

Размер: 8.85 GB | Добавлен: 5 лет назад | Торрент скачан:15 раз
Скачать  

03-10-2015 22:44 Любовь и милосердие Скачать торрент  

Любовь и милосердие / Love & Mercy«The Life, Love and Genius of Brian Wilson»

Год выпуска: 2015
Страна: США
Жанр: драма, биография, музыка
Продолжительность: 02:01:34
Перевод: Дубляж - [Лицензия / iTunes]
Субтитры: Английские
Режиссер: Уильям Полад / Bill Pohlad
В ролях:


Элизабет Бэнкс (Melinda Ledbetter), Пол Джаматти (Dr. Eugene Landy), Джон Кьюсак (Brian Future), Пол Дано (Brian Past), Кенни Вормолд (Dennis Wilson), Джейк Эйбел (Mike Love), Джоэнна Гоуинг (Audree Wilson), Бретт Даверн (Carl Wilson), Грэхэм Роджерс (Al Jardine), Брайан Уилсон (играет самого себя, хроника), Эрин Майя Дарк (Marilyn Wilson), Тайсон Риттер (Hipster #1)

Описание:
История затворнического автора песен Beach Boys и музыканта Брайана Уилсона, от его успехов с чрезвычайно влиятельными оркестровыми популярными альбомами к его нервному срыву и последующему столкновению с врачом, доктором Юджином Лэнди.

Рейтинг:

MPAA: PG-13 - Детям до 13 лет просмотр не желателен
Качество: BDRip 720p
Формат: MKV
Видео кодек:AVC
Аудио кодек:AAC LC, AC3, DTS
Видео: AVC, 1280x720 (16:9), 23,976 fps
Аудио №1: русский / AC3 / 5.1 / 48 kHz / 384 kbps / 16 bit |Дубляж - [Лицензия / iTunes]|
Аудио №2: английский / DTS / 5.1 / 48 kHz / 1510 kbps / 24 bit
Аудио №3: английский / AAC LC / 2.0 / 48 kHz /


General
Unique ID : 202497277417935343307950741876055896196 (0x98578E99196822B38B66AEE027B27084)
Complete name : D:\_uTorrent_\Love.And.Mercy.2014.720p.BluRay.x264.Rus.2xEng.Subs-VietHD.mkv
Format : Matroska
Format version : Version 4 / Version 2
File size : 8.85 GiB
Duration : 2h 1mn
Overall bit rate : 10.4 Mbps
Encoded date : UTC 2015-10-03 16:24:46
Writing application : mkvmerge v6.9.1 ('Blue Panther') 64bit built on Apr 18 2014 18:23:38
Writing library : libebml v1.3.0 + libmatroska v1.4.1
Attachment : Yes

Video
ID : 1
Format : AVC
Format/Info : Advanced Video Codec
Format profile : High@L4.1
Format settings, CABAC : Yes
Format settings, ReFrames : 9 frames
Codec ID : V_MPEG4/ISO/AVC
Duration : 2h 1mn
Width : 1 280 pixels
Height : 720 pixels
Display aspect ratio : 16:9
Frame rate : 23.976 fps
Color space : YUV
Chroma subsampling : 4:2:0
Bit depth : 8 bits
Scan type : Progressive
Writing library : x264 core 148 r2597.9 1808e2a VietHD_Custom_64
Encoding settings : cabac=1 / ref=9 / deblock=1:-3:-3 / analyse=0x3:0x133 / me=umh / subme=10 / psy=1 / fade_compensate=0.00 / psy_rd=1.05:0.00 / mixed_ref=1 / me_range=24 / chroma_me=1 / trellis=2 / 8x8dct=1 / cqm=0 / deadzone=21,11 / fast_pskip=0 / chroma_qp_offset=-2 / threads=12 / lookahead_threads=3 / sliced_threads=0 / nr=0 / decimate=0 / interlaced=0 / bluray_compat=0 / constrained_intra=0 / fgo=0 / bframes=10 / b_pyramid=2 / b_adapt=2 / b_bias=0 / direct=3 / weightb=1 / open_gop=0 / weightp=2 / keyint=250 / keyint_min=23 / scenecut=40 / intra_refresh=0 / rc_lookahead=60 / rc=crf / mbtree=0 / crf=17.9000 / qcomp=0.60 / qpmin=0:0:0 / qpmax=69:69:69 / qpstep=4 / vbv_maxrate=62500 / vbv_bufsize=78125 / crf_max=0.0 / nal_hrd=none / filler=0 / ip_ratio=1.30 / pb_ratio=1.20 / aq=3:0.80 / aq-sensitivity=10.00 / aq-factor=1.00:1.00:1.00 / aq2=0 / aq3=0
Language : English
Default : Yes
Forced : No

Audio #1
ID : 2
Format : AC-3
Format/Info : Audio Coding 3
Mode extension : CM (complete main)
Codec ID : A_AC3
Duration : 2h 1mn
Bit rate mode : Constant
Bit rate : 384 Kbps
Channel(s) : 6 channels
Channel positions : Front: L C R, Side: L R, LFE
Sampling rate : 48.0 KHz
Bit depth : 16 bits
Compression mode : Lossy
Stream size : 334 MiB (4%)
Title : iTunes
Language : Russian
Default : Yes
Forced : No

Audio #2
ID : 3
Format : DTS
Format/Info : Digital Theater Systems
Codec ID : A_DTS
Duration : 2h 1mn
Bit rate mode : Constant
Bit rate : 1 510 Kbps
Channel(s) : 6 channels
Channel positions : Front: L C R, Side: L R, LFE
Sampling rate : 48.0 KHz
Bit depth : 24 bits
Compression mode : Lossy
Stream size : 1.28 GiB (14%)
Language : English
Default : No
Forced : No

Audio #3
ID : 4
Format : AAC
Format/Info : Advanced Audio Codec
Format profile : LC
Codec ID : A_AAC
Duration : 2h 1mn
Channel(s) : 2 channels
Channel positions : Front: L R
Sampling rate : 48.0 KHz
Compression mode : Lossy
Delay relative to video : 20ms
Language : English
Default : No
Forced : No

Text
ID : 5
Format : UTF-8
Codec ID : S_TEXT/UTF8
Codec ID/Info : UTF-8 Plain Text
Language : English
Default : No
Forced : No

Menu
00:00:00.000 : en:00:00:00.000
00:06:06.157 : en:00:06:06.157
00:16:59.727 : en:00:16:59.727
00:24:51.573 : en:00:24:51.573
00:29:10.165 : en:00:29:10.165
00:37:29.789 : en:00:37:29.789
00:44:41.053 : en:00:44:41.053
00:53:03.806 : en:00:53:03.806
01:00:06.478 : en:01:00:06.478
01:06:58.598 : en:01:06:58.598
01:14:35.846 : en:01:14:35.846
01:23:04.646 : en:01:23:04.646
01:30:08.528 : en:01:30:08.528
01:38:18.476 : en:01:38:18.476
01:47:52.841 : en:01:47:52.841
01:54:33.325 : en:01:54:33.325

[/code]
pb.wtf



Скачать Любовь и милосердие через торрент http://i69.fastpic.ru/big/2015/1004/32/a8237b2a0d23a1f14b99329d76daa432.png Скачать фильм Любовь и милосердие через торрент бесплантно в хорошем качестве Описание: История затворнического автора песен Beach Boys и музыканта Брайана Уилсона, от его успехов с чрезвычайно влиятельными ... 9.5 10 2
Info! Золотая раздача, скачанное не засчитывается.
Торрент: Зарегистрирован [2015-10-03 22:44] · скачан: 15 раз
Статус: √ проверено
Размер: 8.85 GB
Как cкачать? Как скачать Любовь и милосердие через торрент | qTorrent

28-11-2019 20:33  

Отключить всю рекламу на сайте

    Дорогой пользователь! Огромная просьба, поблагодарите релизера, оцените раздачу и оставьте свои комментарий, если Вы скачали Любовь и милосердие через торрент бесплатно! Внесите свою лепту в развитие PiratBit!
    Комментировать посты могут только пользователи прошедшие не сложную регистрацию
    Показать сообщения:    

    Любовь и милосердие через торрент
    Скачать бесплатно Любовь и милосердие
    Любовь и милосердие скачать торрент
    Любовь и милосердие смотреть онлайн
    Cкачать фильм Любовь и милосердие бесплатно
    Любовь и милосердие скачать торрент в хорошем качестве
    Любовь и милосердие смотреть онлайн бесплатно в хорошем качестве


    Вы не можете начинать темы
    Вы не можете отвечать на сообщения
    Вы не можете редактировать свои сообщения
    Вы не можете удалять свои сообщения
    Вы не можете голосовать в опросах
    Вы не можете прикреплять файлы к сообщениям
    Вы можете скачивать файлы