Ссылка на приватное зеркало нашего сайта всего за 1$. Внимание количество ограничено!!!

2 сезон

iTunes

1 сезон

1

iTunes

iTunes

iTunes

1 сезон

RePack

30

ИГРА 18+

pack

ВАЖНО

!!Акция!!

Alien_RageХит недели

RePack

MK11
pack

Забери бонус

RePack

jed

!!Акция!!

Alien_Rage

RePack

fifa19

RePack

Assassins Creed: Odyssey

RePack

NEED FOR SPEED™ PAYBACK

4 сезон

9 сезон

Бесстыжие 9 сезон

Все сериалы

все сериалы на PB.wtf

RePack

FAR CRY 5
  

Неразрезанные страницы / Серии: 1-4 из 4 (Петр Амелин) [2015, Детектив, SATRip-AVC] pb.wtf

Неразрезанные страницы через торрент pb.wtf

Размер: 1.95 GB | Добавлен: 5 лет назад | Торрент скачан:150 раз
Скачать  

04-10-2015 06:59 Неразрезанные страницы Скачать торрент  

Неразрезанные страницы

Год выпуска: 2015
Производство: Россия, продюсерский центр "Фа
Жанр: Детектив
Продолжительность: ~00:45:00 серия
Субтитры: нет

Режиссёр: Петр Амелин

В ролях: Павел Трубинер, Кристина Бабушкина, Наталья Высочанская, Олег Андреев, Ирина Соколова (II), Сергей Паршин, Максим Фомин, Ирина Полянская, Иван Ожогин, Владимир Колганов, Всеволод Цурило, Наталья Кутасова, Вера Шпак, Ксения Лукьянчикова, Анна Лапина, Валентина Савчук, Мария Мясникова, Ярослав Воронцов, Дмитрий Сутырин, Геша Меньшиков, Алексей Зубков, Надежда Шумилова, Александр Рыбаков, Александр Мойса, Людмила Бояринова

Описание: Алекс Шан-Гирей считает, что должен снова вернуть себя и обрести свободу. И потому расстается с Маней Поливановой – женщиной всей своей жизни, а по совместительству автором популярных детективов. В его жизни никто не вправе занимать столько места. Он – Алекс Шан-Гирей – не выносит несвободы. А Маня Поливанова совершенно не выносит вранья и человеческих мучений. И если уж Алекс почему-то решил "освободиться" – Пожалуйста! Ей нужно спасать Владимира Берегового – главу IT-отдела издательства "ЛИАННА", который попадает в мистическую историю с исчезнувшим трупом. Труп испаряется из дома телеведущего Сергея Балашова, а оказывается в багажнике машины Берегового. Только это труп другого человека. Да и тот злосчастный дом, как выясняется, вовсе не Балашова…



Качество: SATRip
Формат: MKV
Видео кодек: H.264
Аудио кодек: AC3
Видео: MPEG4 Video (H264), 720x400, 25fps,1593 Kbps,bit/pixel 0.194
Аудио: AC3 48000Hz, stereo, 192kbps,2 ch
Общее
Уникальный идентификатор : 187216338993122620855068821557634999711 (0x8CD88E2A678A7330A8FAC3F9EC35259F)
Полное имя : D:\Неразрезанные страницы\01 серия.mkv
Формат : Matroska
Версия формата : Version 2
Размер файла : 499 Мбайт
Продолжительность : 43 м.
Общий поток : 1593 Кбит/сек
Дата кодирования : UTC 2015-10-03 23:15:04
Программа кодирования : mkvmerge v7.8.0 ('River Man') 32bit built on Apr 3 2015 12:11:22
Библиотека кодирования : libebml v1.3.1 + libmatroska v1.4.2

Видео
Идентификатор : 1
Формат : AVC
Формат/Информация : Advanced Video Codec
Профиль формата : High@L4.1
Параметр CABAC формата : Да
Параметр ReFrames формата : 9 кадров
Идентификатор кодека : V_MPEG4/ISO/AVC
Продолжительность : 43 м.
Битрейт : 1399 Кбит/сек
Ширина : 720 пикселей
Высота : 400 пикселей
Соотношение сторон : 16:9
Режим частоты кадров : Постоянный
Частота кадров : 25,000 кадров/сек
Цветовое пространство : YUV
Субдискретизация насыщенности : 4:2:0
Битовая глубина : 8 бит
Тип развёртки : Прогрессивная
Бит/(Пиксели*Кадры) : 0.194
Размер потока : 429 Мбайт (86%)
Библиотека кодирования : x264 core 146 r2538 121396c
Настройки программы : cabac=1 / ref=9 / deblock=1:-3:-3 / analyse=0x3:0x133 / me=umh / subme=9 / psy=1 / psy_rd=1.00:0.00 / mixed_ref=0 / me_range=16 / chroma_me=1 / trellis=2 / 8x8dct=1 / cqm=0 / deadzone=21,11 / fast_pskip=1 / chroma_qp_offset=-2 / threads=1 / lookahead_threads=1 / sliced_threads=0 / nr=0 / decimate=1 / interlaced=0 / bluray_compat=0 / constrained_intra=0 / bframes=9 / b_pyramid=2 / b_adapt=1 / b_bias=0 / direct=3 / weightb=1 / open_gop=0 / weightp=2 / keyint=250 / keyint_min=25 / scenecut=40 / intra_refresh=0 / rc_lookahead=40 / rc=2pass / mbtree=1 / bitrate=1399 / ratetol=1.0 / qcomp=0.60 / qpmin=0 / qpmax=69 / qpstep=4 / cplxblur=20.0 / qblur=0.5 / ip_ratio=1.40 / aq=1:1.00
Default : Да
Forced : Нет
Цветовой диапазон : Limited
Основные цвета : BT.601 PAL
Характеристики трансфера : BT.470 System B, BT.470 System G
Коэффициенты матрицы : BT.601

Аудио
Идентификатор : 2
Формат : AC-3
Формат/Информация : Audio Coding 3
Расширение режима : CM (complete main)
Параметр Endianness формата : Big
Идентификатор кодека : A_AC3
Продолжительность : 43 м.
Вид битрейта : Постоянный
Битрейт : 192 Кбит/сек
Каналы : 2 канала
Расположение каналов : Front: L R
Частота : 48,0 КГц
Метод сжатия : С потерями
Размер потока : 60,1 Мбайт (12%)
Default : Да
Forced : Нет
Рекламы нет.pb.wtf



Скачать Неразрезанные страницы через торрент http://i65.fastpic.ru/big/2015/1004/7a/fce403bffdd0824d1018720d00859a7a.jpg Скачать фильм Неразрезанные страницы через торрент бесплантно в хорошем качестве Описание: Алекс Шан-Гирей считает, что должен снова вернуть себя и обрести свободу. И потому расстается с Маней Поливановой – женщиной всей ... 10 10 5
Торрент: Зарегистрирован [2015-10-04 06:59] · скачан: 150 раз
Статус: √ проверено
Размер: 1.95 GB
Как cкачать? Как скачать Неразрезанные страницы через торрент | qTorrent

% Раздел Тема Автор DL S | L
Наши сериалы [ 2.22 GB ] Неразрезанные страницы / 1-4 серии из 4 [2015 WEB-DLRip-AVC] bober100 Скачать
1 | 0

28-11-2019 20:33  

Отключить всю рекламу на сайте

    Дорогой пользователь! Огромная просьба, поблагодарите релизера, оцените раздачу и оставьте свои комментарий, если Вы скачали Неразрезанные страницы через торрент бесплатно! Внесите свою лепту в развитие PiratBit!
    Комментировать посты могут только пользователи прошедшие не сложную регистрацию
    Показать сообщения:    

    Неразрезанные страницы через торрент
    Скачать бесплатно Неразрезанные страницы
    Неразрезанные страницы скачать торрент
    Неразрезанные страницы смотреть онлайн
    Cкачать фильм Неразрезанные страницы бесплатно
    Неразрезанные страницы скачать торрент в хорошем качестве
    Неразрезанные страницы смотреть онлайн бесплатно в хорошем качестве


    Вы не можете начинать темы
    Вы не можете отвечать на сообщения
    Вы не можете редактировать свои сообщения
    Вы не можете удалять свои сообщения
    Вы не можете голосовать в опросах
    Вы не можете прикреплять файлы к сообщениям
    Вы можете скачивать файлы