Ссылка на приватное зеркало всего за 1$. Внимание количество ограничено!!!

OK

1+1

iTunes

мы

OK

1

WEB-DLRip

Джокер

Пифагор

Ведьмак / The Witcher сериал

Лицензия

ПШазам

ОК

Оно 2

iTunes

30
pack

Вам бонус

ВАЖНО

!!Акция!!

Alien_RageХит недели

RePack

Resident Evil 21

ИГРА 18+

pack

RePack

jed

RePack

fifa19

RePack

Assassins Creed: Odyssey

RePack

NEED FOR SPEED™ PAYBACK

4 сезон

9 сезон

Бесстыжие 9 сезон

Все сериалы

все сериалы на PB.wtf

RePack

FAR CRY 5
  

Астрал 3 / Insidious: Chapter 3 (Ли Уоннелл / Leigh Whannell) [2015, ужасы, триллер, драма, BDRip-AVC от potroks] DUB Лицензия pb.wtf

Астрал 3 через торрент pb.wtf

Раздают: 2 [ 0 KB/s ]
Размер: 1.46 GB | Добавлен: 4 года 3 мес. назад | Торрент скачан:753 раза
Скачать  

04-10-2015 07:02 Астрал 3 Скачать торрент  

Астрал 3 / Insidious: Chapter 3
«У каждой истории есть начало...»
Год выпуска: 2015
Страна: Канада, США / Entertainment One, Blumhouse Productions, Automatik Entertainment
Жанр: ужасы, триллер, драма
Продолжительность: 01:37:22
Перевод: Дубляж - [Лицензия]
Субтитры: русские (Forced), русские
Навигация по главам: есть
Режиссер: Ли Уоннелл / Leigh Whannell
В ролях:

Стефани Скотт (Quinn Brenner), Лин Шэй (Elise Rainier), Дермот Малруни (Sean Brenner), Энгус Сэмпсон (Tucker), Ли Уоннелл (Specs), Тейт Берни (Alex Brenner), Майкл Рид МакКей (The Man Who Can't Breathe), Стив Култер (Carl), Хейли Кийоко (Maggie), Корбетт Так (Danielle), Том Фицпатрик (Bride In Black), Том Гэллоп (Dr. Henderson)
Описание: История о том, как одаренный экстрасенс Элис Рейнер неохотно соглашается использовать свои способности для установления связи с мертвыми, чтобы помочь девочке-подростку, которая стала мишенью для опасной сверхъестественной сущности.

Качество: BDRip-AVC
Формат: MKV
Видео кодек: AVC
Аудио кодек: AC3
Видео: AVC, 1032x432 (2.40:1), 1700 kbps, 23,976 fps, 0,159 bit/pixel
Аудио: AC3 / 5.1 / 48 kHz / 448 kbps / 16 bit

Релиз группы:
Автор рипа: potroks

Код:

General
Unique ID                                : 193325205258482665900024802036504260562 (0x91711486C1837F9F93DBEC0C1ABAEFD2)
Complete name                            : Astral.3.2015.RUS.BDRip.x264.-HELLYWOOD.mkv
Format                                   : Matroska
Format version                           : Version 4 / Version 2
File size                                : 1.46 GiB
Duration                                 : 1h 37mn
Overall bit rate                         : 2 149 Kbps
Movie name                               : Insidious: Chapter 3 (2015) - HELLYWOOD
Encoded date                             : UTC 2015-10-04 06:52:41
Writing application                      : mkvmerge v5.9.0 ('On The Loose') built on Dec 15 2012 16:39:58
Writing library                          : libebml v1.3.0 + libmatroska v1.4.0

Video
ID                                       : 1
Format                                   : AVC
Format/Info                              : Advanced Video Codec
Format profile                           : High@L4.1
Format settings, CABAC                   : Yes
Format settings, ReFrames                : 10 frames
Codec ID                                 : V_MPEG4/ISO/AVC
Duration                                 : 1h 37mn
Bit rate                                 : 1 700 Kbps
Width                                    : 1 032 pixels
Height                                   : 432 pixels
Display aspect ratio                     : 2.40:1
Frame rate                               : 23.976 fps
Color space                              : YUV
Chroma subsampling                       : 4:2:0
Bit depth                                : 8 bits
Scan type                                : Progressive
Bits/(Pixel*Frame)                       : 0.159
Stream size                              : 1.13 GiB (77%)
Title                                    : potroks
Writing library                          : x264 core 148 r2597M e86f3a1
Encoding settings                        : cabac=1 / ref=10 / deblock=1:-2:-2 / analyse=0x3:0x133 / me=umh / subme=11 / psy=1 / psy_rd=1.00:0.10 / mixed_ref=1 / me_range=48 / chroma_me=1 / trellis=2 / 8x8dct=1 / cqm=0 / deadzone=21,11 / fast_pskip=0 / chroma_qp_offset=-3 / threads=10 / lookahead_threads=2 / sliced_threads=0 / nr=0 / decimate=1 / interlaced=0 / bluray_compat=0 / constrained_intra=0 / bframes=11 / b_pyramid=2 / b_adapt=2 / b_bias=0 / direct=3 / weightb=1 / open_gop=0 / weightp=2 / keyint=250 / keyint_min=23 / scenecut=40 / intra_refresh=0 / rc=2pass / mbtree=0 / bitrate=1700 / ratetol=1.0 / qcomp=0.70 / qpmin=0 / qpmax=69 / qpstep=4 / cplxblur=20.0 / qblur=0.5 / ip_ratio=1.40 / pb_ratio=1.30 / aq=1:0.80
Language                                 : English
Default                                  : Yes
Forced                                   : No

Audio
ID                                       : 2
Format                                   : AC-3
Format/Info                              : Audio Coding 3
Mode extension                           : CM (complete main)
Codec ID                                 : A_AC3
Duration                                 : 1h 37mn
Bit rate mode                            : Constant
Bit rate                                 : 448 Kbps
Channel(s)                               : 6 channels
Channel positions                        : Front: L C R, Side: L R, LFE
Sampling rate                            : 48.0 KHz
Bit depth                                : 16 bits
Compression mode                         : Lossy
Stream size                              : 312 MiB (21%)
Title                                    : Dub | DD 5.1 @ 448 kbps - Blu-Ray
Language                                 : Russian
Default                                  : Yes
Forced                                   : No

Text #1
ID                                       : 3
Format                                   : UTF-8
Codec ID                                 : S_TEXT/UTF8
Codec ID/Info                            : UTF-8 Plain Text
Title                                    : Forced
Language                                 : Russian
Default                                  : Yes
Forced                                   : No

Text #2
ID                                       : 4
Format                                   : UTF-8
Codec ID                                 : S_TEXT/UTF8
Codec ID/Info                            : UTF-8 Plain Text
Language                                 : Russian
Default                                  : No
Forced                                   : No

Menu
00:00:00.000                             : :(01)00:00:00:000
00:11:02.620                             : :(02)00:11:02:620
00:15:10.241                             : :(03)00:15:10:241
00:20:14.378                             : :(04)00:20:14:378
00:26:15.531                             : :(05)00:26:15:531
00:33:00.979                             : :(06)00:33:00:979
00:38:09.327                             : :(07)00:38:09:327
00:41:51.132                             : :(08)00:41:51:132
00:45:27.266                             : :(09)00:45:27:266
00:49:39.893                             : :(10)00:49:39:893
00:54:36.731                             : :(11)00:54:36:731
01:01:02.449                             : :(12)01:01:02:449
01:05:06.443                             : :(13)01:05:06:443
01:11:54.768                             : :(14)01:11:54:768
01:16:33.587                             : :(15)01:16:33:587
01:27:24.238                             : :(16)01:27:24:238

pb.wtf



Скачать Астрал 3 через торрент http://s019.radikal.ru/i600/1510/54/e28d43fc454b.png Скачать фильм Астрал 3 через торрент бесплантно в хорошем качестве Описание: История о том, как одаренный экстрасенс Элис Рейнер неохотно соглашается использовать свои способности для установления связи с ... 9 10 12
Info! Золотая раздача, скачанное не засчитывается.
Торрент: Зарегистрирован [2015-10-04 07:02] · скачан: 753 раз
Статус: √ проверено
Размер: 1.46 GB
Как cкачать? Как скачать Астрал 3 через торрент | qTorrent

% Раздел Тема Автор DL S | L
Фильмы 2015 [DVDrip, WEB-DLRip, HDrip] [ 1.46 GB ] Астрал 3 / Insidious: Chapter 3 [2015 BDRip] DUB Twi7ter Скачать
1 | 0
Фильмы 2015 [DVDrip, WEB-DLRip, HDrip] [ 2.18 GB ] Астрал 3 / Insidious: Chapter 3 [2015 BDRip-AVC] DUB potroks Скачать
1 | 0

28-11-2019 20:33  

Отключить всю рекламу на сайте

    Дорогой пользователь! Огромная просьба, поблагодарите релизера, оцените раздачу и оставьте свои комментарий, если Вы скачали Астрал 3 через торрент бесплатно! Внесите свою лепту в развитие PiratBit!
    Комментировать посты могут только пользователи прошедшие не сложную регистрацию
    Показать сообщения:    

    Астрал 3 через торрент
    Скачать бесплатно Астрал 3
    Астрал 3 скачать торрент
    Астрал 3 смотреть онлайн
    Cкачать фильм Астрал 3 бесплатно
    Астрал 3 скачать торрент в хорошем качестве
    Астрал 3 смотреть онлайн бесплатно в хорошем качестве


    Вы не можете начинать темы
    Вы не можете отвечать на сообщения
    Вы не можете редактировать свои сообщения
    Вы не можете удалять свои сообщения
    Вы не можете голосовать в опросах
    Вы не можете прикреплять файлы к сообщениям
    Вы можете скачивать файлы