новый адрес пиратбит piratbit
Мега распродажа FORZA HORIZON 4 ULTIMATE+ВСЕ DLC+ОНЛАЙН всего за 499р. 349 руб. (супер цена). Внимание количество ограничено!!!

iTunes

1+1

iTunes

мы

iTunes

1

iTunes

Чернобыль

iTunes

Ральф против интернета

Лицензия

ПШазам

Лицензия

Игра престолов

Лицензия

30
pack

ВАЖНО

!!Акция!!

Alien_RageХит недели

RePack

Resident Evil 21

ИГРА 18+

pack

RePack

Metro:Exodus

!!Акция!!

Alien_Rage

RePack

fifa19

RePack

Assassins Creed: Odyssey

RePack

NEED FOR SPEED™ PAYBACK

3 сезон

9 сезон

Бесстыжие 9 сезон

Все сериалы

все сериалы на PB.wtf

RePack

FAR CRY 5
Ребята, катастрофически не хватает 1900р. для оплаты серверов за Октябрь (всвязи с блокировками трафик упал в 3 раза), 1-2р., выручайте.
  

Родные поля (Борис Бабочкин, Анатолий Босулаев) [1944, СССР, драма, SATRip от AVP Studio] pb.wtf

Родные поля через торрент pb.wtf

Качают: 1 [ 0 KB/s ]
Размер: 745 MB | Добавлен: 4 года 1 мес. назад | Торрент скачан:25 раз
Скачать  

04-10-2015 08:59 Родные поля Скачать торрент  

Родные поля
Страна: СССР
Производство: Мосфильм

Жанр: драма
Год выпуска: 1944
Продолжительность: 01:29:14

Перевод: Не требуется
Cубтитры: нет
Оригинальная аудиодорожка: русский

Режиссер: Борис Бабочкин, Анатолий Босулаев

В ролях:
Борис Бабочкин, Василий Ванин, Николай Сергеев, Ольга Викландт, Нина Никитина, Анастасия Зуева, Елизавета Кузюрина, Нина Зорская, Владимир Балихин, М. Томкевич, Виктор Кольцов (Кутаков), Марина (Мария) Гаврилко, Мария Виноградова, Виктор Ключарев, Анатолий Елисеев, Мария Волкова, Владимир Колчин, Анна Кожевникова, Вера Орлова, Алексей Темерин, Зоя Толбузина (Земнухова), Владимир Уральский, Галина Фролова, Н. Карпов, Александр Лукьянов, А. Скворцова, Елена Тяпкина...
Полный список актёров

Описание:
Сказ о трудовом и героическом подвиге русского народа в годы Великой Отечественной войны. Ноябрь 1941 года. Один за другим уходят мужчины, в деревне Быковка остаются лишь старики, женщины и дети. Председатель колхоза Иван Выборнов тоже рвется на фронт, но, подчиняясь партийной дисциплине, остается в деревне и продолжает умело руководить колхозом, мобилизуя односельчан на отправку хлеба для фронта и голодающих городов.
Первая режиссерская работа известного актера Бориса Бабочкина и театрального художника Анатолия Босулаева.

Источник: DVB
Качество видео: SATRip
Формат видео: AVI

Видео: 608x448 (1,357:1), 25 fps, XviD ~ 1030 kbps avg, 0.151 bit/pixel
Аудио: 48 kHz, MP3 2.0, 128 kbps

Раздача от:
Общее
Полное имя : Rodnye.polya.1944.DVDRip-745_[New-team]_by_AVP_Studio.avi
Формат : AVI
Формат/Информация : Audio Video Interleave
Размер файла : 745 Мбайт
Продолжительность : 1 ч. 29 м.
Общий поток : 1168 Кбит/сек
Программа кодирования : VirtualDubModRus 1.5.10.2 (build 2542/release)
Библиотека кодирования : VirtualDubMod build 2542/release

Видео
Идентификатор : 0
Формат : MPEG-4 Visual
Профиль формата : Advanced Simple@L5
Параметр BVOP формата : 1
Параметр QPel формата : Нет
Параметр GMC формата : Без точки перехода
Параметр матрицы формата : Выборочная
Идентификатор кодека : XVID
Идентификатор кодека/Подсказка : XviD
Продолжительность : 1 ч. 29 м.
Битрейт : 1030 Кбит/сек
Ширина : 608 пикселей
Высота : 448 пикселей
Соотношение сторон : 4:3
Частота кадров : 25,000 кадров/сек
Цветовое пространство : YUV
Субдискретизация насыщенности : 4:2:0
Битовая глубина : 8 бит
Тип развёртки : Прогрессивная
Метод сжатия : С потерями
Бит/(Пиксели*Кадры) : 0.151
Размер потока : 657 Мбайт (88%)
Библиотека кодирования : XviD 73

Аудио
Идентификатор : 1
Формат : MPEG Audio
Версия формата : Version 1
Профиль формата : Layer 3
Идентификатор кодека : 55
Идентификатор кодека/Подсказка : MP3
Продолжительность : 1 ч. 29 м.
Вид битрейта : Постоянный
Битрейт : 128 Кбит/сек
Каналы : 2 канала
Частота : 48,0 КГц
Метод сжатия : С потерями
Размер потока : 81,7 Мбайт (11%)
Выравнивание : Соединение по промежуткам
Продолжительность промежутка : 40 мс. (1,00 видеокадр)
Время предзагрузки промежутка : 504 мс.
Библиотека кодирования : LAME3.99r
Настройки программы : -m s -V 4 -q 2 -lowpass 17 -b 128
pb.wtf



Скачать Родные поля через торрент http://s020.radikal.ru/i716/1504/22/4ce8121f1c0c.png Скачать фильм Родные поля через торрент бесплантно в хорошем качестве Описание:Сказ о трудовом и героическом подвиге русского народа в годы Великой Отечественной войны. Ноябрь 1941 года. Один за другим уходят ... 5 10 1
Торрент: Зарегистрирован [2015-10-04 08:59] · скачан: 25 раз
Статус: √ проверено
Размер: 745 MB
Как cкачать? Как скачать Родные поля через торрент | qTorrent

% Раздел Тема Автор DL S | L
Кино СССР [ 1.09 GB ] Родные поля [1944 СССР SATRip-AVC от AVP Studio] AVP Studio Скачать
3 | 0
Кино СССР [ 1.09 GB ] Родные поля [1944 СССР SATRip от AVP Studio] AVP Studio Скачать
1 | 0


>> Регистрируемся здесь <<






Отзывы и комментарии о схеме читаем и пишем здесь: ---> Отзывы и комментарии о схеме

Новые благодарочки в телеграм довольных пользователей:
скриншот   скриншот   скриншот   скриншот   скриншот
    Дорогой пользователь! Огромная просьба, поблагодарите релизера, оцените раздачу и оставьте свои комментарий, если Вы скачали Родные поля через торрент бесплатно! Внесите свою лепту в развитие PiratBit!
    Комментировать посты могут только пользователи прошедшие не сложную регистрацию
    Показать сообщения:    

    Родные поля через торрент
    Скачать бесплатно Родные поля
    Родные поля скачать торрент
    Родные поля смотреть онлайн
    Cкачать фильм Родные поля бесплатно
    Родные поля скачать торрент в хорошем качестве
    Родные поля смотреть онлайн бесплатно в хорошем качестве


    Вы не можете начинать темы
    Вы не можете отвечать на сообщения
    Вы не можете редактировать свои сообщения
    Вы не можете удалять свои сообщения
    Вы не можете голосовать в опросах
    Вы не можете прикреплять файлы к сообщениям
    Вы можете скачивать файлы