новый адрес
Мега распродажа FORZA HORIZON 4 ULTIMATE+ВСЕ DLC+ОНЛАЙН всего за 499р. 349 руб. (супер цена). Внимание количество ограничено!!!

iTunes

1+1

iTunes

мы

iTunes

1

iTunes

Чернобыль

iTunes

Ральф против интернета

Лицензия

ПШазам

Лицензия

Оно 2

Лицензия

30
pack

ВАЖНО

!!Акция!!

Alien_RageХит недели

RePack

Resident Evil 21

ИГРА 18+

pack

RePack

Metro:Exodus

!!Акция!!

Alien_Rage

RePack

fifa19

RePack

Assassins Creed: Odyssey

RePack

NEED FOR SPEED™ PAYBACK

3 сезон

9 сезон

Бесстыжие 9 сезон

Все сериалы

все сериалы на PB.wtf

RePack

FAR CRY 5
Ребята, катастрофически не хватает 1900р. для оплаты серверов за Октябрь (всвязи с блокировками трафик упал в 3 раза), 1-2р., выручайте.
  

В степи (Борис Бунеев, А. Ульянцев) [1950, СССР, короткометражка, драма, VHSRip-AVC] pb.wtf

В степи через торрент pb.wtf

Размер: 745 MB | Добавлен: 4 года 1 мес. назад | Торрент скачан:1 раз
Скачать  

04-10-2015 10:06 В степи Скачать торрент  

В степи
Страна: СССР
Производство: К/ст им.Горького

Жанр: короткометражка, драма
Год выпуска: 1950
Продолжительность: 00:40:38

Перевод: Не требуется
Cубтитры: нет
Оригинальная аудиодорожка: русский

Режиссер: Борис Бунеев, А. Ульянцев

В ролях:
Борис Елисеев, Андрей Тарасов, Наталья Защипина, Володя Феоктистов, Анатолий Керби, Юрий Кононов, Марк Бернес, Всеволод Санаев, Павел Волков, Юрий Саранцев, Валентина Телегина...
Полный список актёров

Описание:
По повести Петра Павленко "Степное солнце".
Пионер Сережа Емельянов, ранее никогда не бывавший в степи, приезжает с отцом, шофером, на уборку урожая. Его ранние представления о колхозной жизни, как о чем-то ужасно скучном и ненужном, под впечатлением проделанной работы меняются - и мальчик с большой грустью расстается со степью и природой, которую полюбил на всю жизнь.
Изначально стереофильм.

Источник: VHS
Качество видео: VHSRip-AVC
Формат видео: MKV

Видео: 688->758x568 (4:3), 25 fps, H264 ~ 2369 kbps avg, 0.242 bit/pixel
Аудио: 48 kHz, Dolby Digital AC3 2.0, 192 kbps

Раздача от:
Общее
Полное имя : V.stepi.1950.VHSRip-AVC_[New-team]_by_AVP_Studio.mkv
Формат : Matroska
Версия формата : Version 2
Размер файла : 745 Мбайт
Продолжительность : 40 м.
Общий поток : 2563 Кбит/сек
Дата кодирования : UTC 2015-10-03 11:28:08
Программа кодирования : mkvmerge v6.1.0 ('Old Devil') built on Mar 4 2013 09:10:42
Библиотека кодирования : libebml v1.3.0 + libmatroska v1.4.0

Видео
Идентификатор : 1
Формат : AVC
Формат/Информация : Advanced Video Codec
Профиль формата : High@L4.1
Параметр CABAC формата : Да
Параметр ReFrames формата : 10 кадров
Идентификатор кодека : V_MPEG4/ISO/AVC
Продолжительность : 40 м.
Битрейт : 2369 Кбит/сек
Ширина : 688 пикселей
Высота : 568 пикселей
Соотношение сторон : 4:3
Режим частоты кадров : Постоянный
Частота кадров : 25,000 кадров/сек
Цветовое пространство : YUV
Субдискретизация насыщенности : 4:2:0
Битовая глубина : 8 бит
Тип развёртки : Прогрессивная
Бит/(Пиксели*Кадры) : 0.242
Размер потока : 674 Мбайт (91%)
Библиотека кодирования : x264 core 130 r2273 b3065e6
Настройки программы : cabac=1 / ref=10 / deblock=1:-2:-1 / analyse=0x3:0x113 / me=umh / subme=10 / psy=1 / psy_rd=1.00:0.00 / mixed_ref=1 / me_range=32 / chroma_me=1 / trellis=2 / 8x8dct=1 / cqm=0 / deadzone=21,11 / fast_pskip=1 / chroma_qp_offset=-2 / threads=6 / lookahead_threads=1 / sliced_threads=0 / nr=0 / decimate=0 / interlaced=0 / bluray_compat=0 / constrained_intra=0 / bframes=8 / b_pyramid=2 / b_adapt=2 / b_bias=0 / direct=3 / weightb=1 / open_gop=0 / weightp=2 / keyint=250 / keyint_min=25 / scenecut=40 / intra_refresh=0 / rc=2pass / mbtree=0 / bitrate=2369 / ratetol=1.0 / qcomp=0.60 / qpmin=0 / qpmax=69 / qpstep=4 / cplxblur=20.0 / qblur=0.5 / ip_ratio=1.40 / pb_ratio=1.30 / aq=1:1.00
Default : Да
Forced : Нет

Аудио
Идентификатор : 2
Формат : AC-3
Формат/Информация : Audio Coding 3
Расширение режима : CM (complete main)
Параметр Endianness формата : Big
Идентификатор кодека : A_AC3
Продолжительность : 40 м.
Вид битрейта : Постоянный
Битрейт : 192 Кбит/сек
Каналы : 2 канала
Расположение каналов : Front: L R
Частота : 48,0 КГц
Метод сжатия : С потерями
Размер потока : 55,8 Мбайт (7%)
Default : Да
Forced : Нет
pb.wtf



Скачать В степи через торрент http://i057.radikal.ru/1510/71/54ac1aa47a60.png Скачать фильм В степи через торрент бесплантно в хорошем качестве Описание:По повести Петра Павленко "Степное солнце".Пионер Сережа Емельянов, ранее никогда не бывавший в степи, приезжает с отцом, шофером, ... 10 10 1
Info! Золотая раздача, скачанное не засчитывается.
Торрент: Зарегистрирован [2015-10-04 10:06] · скачан: 1 раз
Статус: √ проверено
Размер: 745 MB
Как cкачать? Как скачать В степи через торрент | qTorrent

% Раздел Тема Автор DL S | L
Кино СССР [ 1.09 GB ] Двое в степи [1962 СССР военный SATRip-AVC от AVP Studio] AVP Studio Скачать
1 | 0
Кино СССР [ 1.09 GB ] Двое в степи [1962 СССР военный SATRip от AVP Studio] AVP Studio Скачать
1 | 0
Фантастика [ 985 MB ] Константин Калбазов - Город в степи [Дамир Мударисов 2018 192 kbps MP3] oleg8 Скачать
1 | 0
Кино СССР [ 744 MB ] В степи [1950 СССР короткометражка VHSRip] AVP Studio Скачать
1 | 0


>> Регистрируемся здесь <<






Отзывы и комментарии о схеме читаем и пишем здесь: ---> Отзывы и комментарии о схеме

Новые благодарочки в телеграм довольных пользователей:
скриншот   скриншот   скриншот   скриншот   скриншот
    Дорогой пользователь! Огромная просьба, поблагодарите релизера, оцените раздачу и оставьте свои комментарий, если Вы скачали В степи через торрент бесплатно! Внесите свою лепту в развитие PiratBit!
    Комментировать посты могут только пользователи прошедшие не сложную регистрацию
    Показать сообщения:    

    В степи через торрент
    Скачать бесплатно В степи
    В степи скачать торрент
    В степи смотреть онлайн
    Cкачать фильм В степи бесплатно
    В степи скачать торрент в хорошем качестве
    В степи смотреть онлайн бесплатно в хорошем качестве


    Вы не можете начинать темы
    Вы не можете отвечать на сообщения
    Вы не можете редактировать свои сообщения
    Вы не можете удалять свои сообщения
    Вы не можете голосовать в опросах
    Вы не можете прикреплять файлы к сообщениям
    Вы можете скачивать файлы