1 сезон

3 сезон

iTunes

1

Line

MVO

iTunes

13

1 сезон

RePack

30

Deluxe

pack

Лицензия

ВАЖНО

ИГРА 18+

pack

RePack

MK11

RePack

jed

RePack

fifa19

RePack

RDR2

RePack

NEED FOR SPEED™ PAYBACK

4 сезон

9 сезон

Бесстыжие 9 сезон

Все сериалы

все сериалы на PB.wtf

RePack

FAR CRY 5

Anonymous, добрый день, мы катастрофически не успеваем собрать деньги на оплату серверов, помогите нам пожалуйста 5,10,15р., для нас важна любая помощь . В качестве благодарности мы отключим Вам всю рекламу на сайте (укажите свой ник в строку Ваше имя)!

×
  
Magnet ссылка

Великая сила (Фридрих Эрмлер) [1950, СССР, драма, DVDRip от AVP Studio] pb.wtf

Великая сила через торрент pb.wtf

Размер: 1.46 GB | Добавлен: 5 лет 9 мес. назад | Торрент скачан:4 раза
Скачать  

05-10-2015 08:27 Великая сила Скачать торрент  

Великая сила
Страна: СССР
Производство: Ленфильм

Жанр: драма
Год выпуска: 1950
Продолжительность: 01:39:24

Перевод: Не требуется
Cубтитры: нет
Оригинальная аудиодорожка: русский

Режиссер: Фридрих Эрмлер

В ролях:
Борис Бабочкин, Виктор Хохряков, Галина Инютина, Юрий Толубеев, Николай Боголюбов, Фёдор Никитин, Борис Смирнов, Александр Виолинов, Ольга Аросева, В. Горбунова, Инна Кондратьева, Мария Мазун, Анна Лисянская, Александра Тришко, Владимир Дорофеев, Михаил Дубрава, Пётр Лобанов, Владимир Марьев, В. Сухарев, Герман Хованов...
Полный список актёров

Описание:
Профессор Лавров, ученик и последователь Мичурина, пытается опровергнуть открытия теории наследственности и успешно работает над выведением новой породы кур высокой яйценоскости и продуктивности. Смелого экспериментатора поддерживает ЦК КПСС в лице прибывшего на опытную птицеферму тов. Остроумова.

Источник: DVD5 R5
Качество видео: DVDRip
Формат видео: AVI

Видео: 688x512 (4:3), 25 fps, XviD ~ 1901 kbps avg, 0.216 bit/pixel
Аудио: 48 kHz, Dolby Digital AC3 2.0, 192 kbps

Раздача от:
Общее
Полное имя : Velikaya.sila.1950.DVDRip_[New-team]_by_AVP_Studio.avi
Формат : AVI
Формат/Информация : Audio Video Interleave
Размер файла : 1,46 Гбайт
Продолжительность : 1 ч. 39 м.
Общий поток : 2103 Кбит/сек
Программа кодирования : VirtualDubMod 1.5.10.3 | www.virtualdub-fr.org || (build 2550/release)
Библиотека кодирования : VirtualDubMod build 2550/release

Видео
Идентификатор : 0
Формат : MPEG-4 Visual
Профиль формата : Advanced Simple@L5
Параметр BVOP формата : 1
Параметр QPel формата : Нет
Параметр GMC формата : Без точки перехода
Параметр матрицы формата : Выборочная
Идентификатор кодека : XVID
Идентификатор кодека/Подсказка : XviD
Продолжительность : 1 ч. 39 м.
Битрейт : 1901 Кбит/сек
Ширина : 688 пикселей
Высота : 512 пикселей
Соотношение сторон : 4:3
Частота кадров : 25,000 кадров/сек
Цветовое пространство : YUV
Субдискретизация насыщенности : 4:2:0
Битовая глубина : 8 бит
Тип развёртки : Прогрессивная
Метод сжатия : С потерями
Бит/(Пиксели*Кадры) : 0.216
Размер потока : 1,32 Гбайт (90%)
Библиотека кодирования : XviD 73

Аудио
Идентификатор : 1
Формат : AC-3
Формат/Информация : Audio Coding 3
Расширение режима : CM (complete main)
Параметр Endianness формата : Big
Идентификатор кодека : 2000
Продолжительность : 1 ч. 39 м.
Вид битрейта : Постоянный
Битрейт : 192 Кбит/сек
Каналы : 2 канала
Расположение каналов : Front: L R
Частота : 48,0 КГц
Метод сжатия : С потерями
Размер потока : 137 Мбайт (9%)
Выравнивание : Разделение по промежуткам
Продолжительность промежутка : 40 мс. (1,00 видеокадр)
Время предзагрузки промежутка : 500 мс
pb.wtf



Скачать Великая сила через торрент http://s020.radikal.ru/i703/1510/49/80a7d0964903.png Скачать фильм Великая сила через торрент бесплантно в хорошем качестве Описание:Профессор Лавров, ученик и последователь Мичурина, пытается опровергнуть открытия теории наследственности и успешно работает над ... 9.5 10 2
Info! Золотая раздача, скачанное не засчитывается.
Торрент: Зарегистрирован [2015-10-05 08:27] · скачан: 4 раз
Статус: √ проверено
Размер: 1.46 GB
Как cкачать? Как скачать Великая сила через торрент | UTorrent

% Раздел Тема Автор DL S | L
Drum Bass, Jungle (Albums [LPs], VAs) (mp3) [ 74 MB ] Нейромонах Феофан - Велики силы добра 2016 / MP3 / 320 kbps / drum & bass neurofunk 1mpulse2k20 Скачать
1 | 0
Кино СССР [ 1.46 GB ] Великая сила [1950 СССР DVDRip-AVC от AVP Studio] AVP Studio Скачать
1 | 0
Кино СССР [ 745 MB ] Великая сила [1950 СССР DVDRip от AVP Studio] AVP Studio Скачать
1 | 0
Мультсериалы [ 8.15 GB ] Трансформеры: Воины великой Силы / Transformers: Super God Masterforce [1988 меха DVDRip многоголосый] Bq Скачать
1 | 0
Документальные фильмы и телепередачи [ 514 MB ] Странное дело. Великаны. Темные силы Галактики [Эфир от 2012.09.07] [2012 документальный SATRip] akcent Скачать
1 | 0

28-11-2019 20:33  

Отключить всю рекламу на сайте

    Дорогой пользователь! Огромная просьба, поблагодарите релизера, оцените раздачу и оставьте свои комментарий, если Вы скачали Великая сила через торрент бесплатно! Внесите свою лепту в развитие PiratBit!
    Комментировать посты могут только пользователи прошедшие не сложную регистрацию
    Показать сообщения:    

    Великая сила через торрент
    Скачать бесплатно Великая сила
    Великая сила скачать торрент
    Великая сила смотреть онлайн
    Cкачать фильм Великая сила бесплатно
    Великая сила скачать торрент в хорошем качестве
    Великая сила смотреть онлайн бесплатно в хорошем качестве


    Вы не можете начинать темы
    Вы не можете отвечать на сообщения
    Вы не можете редактировать свои сообщения
    Вы не можете удалять свои сообщения
    Вы не можете голосовать в опросах
    Вы не можете прикреплять файлы к сообщениям
    Вы можете скачивать файлы