новый адрес
Мега распродажа FORZA HORIZON 4 ULTIMATE+ВСЕ DLC+ОНЛАЙН всего за 499р. 349 руб. (супер цена). Внимание количество ограничено!!!

iTunes

1+1

iTunes

мы

iTunes

1

iTunes

Чернобыль

iTunes

Ральф против интернета

Лицензия

ПШазам

Лицензия

Игра престолов

Лицензия

30
pack

ВАЖНО

!!Акция!!

Alien_RageХит недели

RePack

Resident Evil 21

ИГРА 18+

pack

RePack

Metro:Exodus

!!Акция!!

Alien_Rage

RePack

fifa19

RePack

Assassins Creed: Odyssey

RePack

NEED FOR SPEED™ PAYBACK

3 сезон

9 сезон

Бесстыжие 9 сезон

Все сериалы

все сериалы на PB.wtf

RePack

FAR CRY 5
Ребята, катастрофически не хватает 1900р. для оплаты серверов за Октябрь (всвязи с блокировками трафик упал в 3 раза), 1-2р., выручайте.
  

Великая сила (Фридрих Эрмлер) [1950, СССР, драма, DVDRip от AVP Studio] pb.wtf

Великая сила через торрент pb.wtf

Размер: 745 MB | Добавлен: 4 года 1 мес. назад | Торрент скачан:3 раза
Скачать  

05-10-2015 08:27 Великая сила Скачать торрент  

Великая сила
Страна: СССР
Производство: Ленфильм

Жанр: драма
Год выпуска: 1950
Продолжительность: 01:39:24

Перевод: Не требуется
Cубтитры: нет
Оригинальная аудиодорожка: русский

Режиссер: Фридрих Эрмлер

В ролях:
Борис Бабочкин, Виктор Хохряков, Галина Инютина, Юрий Толубеев, Николай Боголюбов, Фёдор Никитин, Борис Смирнов, Александр Виолинов, Ольга Аросева, В. Горбунова, Инна Кондратьева, Мария Мазун, Анна Лисянская, Александра Тришко, Владимир Дорофеев, Михаил Дубрава, Пётр Лобанов, Владимир Марьев, В. Сухарев, Герман Хованов...
Полный список актёров

Описание:
Профессор Лавров, ученик и последователь Мичурина, пытается опровергнуть открытия теории наследственности и успешно работает над выведением новой породы кур высокой яйценоскости и продуктивности. Смелого экспериментатора поддерживает ЦК КПСС в лице прибывшего на опытную птицеферму тов. Остроумова.

Источник: DVD5 R5
Качество видео: DVDRip
Формат видео: AVI

Видео: 576x432 (4:3), 25 fps, XviD ~ 911 kbps avg, 0.146 bit/pixel
Аудио: 48 kHz, MP3 2.0, 128 kbps

Раздача от:
Общее
Полное имя : Velikaya.sila.1950.DVDRip-745_[New-team]_by_AVP_Studio.avi
Формат : AVI
Формат/Информация : Audio Video Interleave
Размер файла : 745 Мбайт
Продолжительность : 1 ч. 39 м.
Общий поток : 1049 Кбит/сек
Программа кодирования : VirtualDubMod 1.5.10.3 | www.virtualdub-fr.org || (build 2550/release)
Библиотека кодирования : VirtualDubMod build 2550/release

Видео
Идентификатор : 0
Формат : MPEG-4 Visual
Профиль формата : Advanced Simple@L5
Параметр BVOP формата : 1
Параметр QPel формата : Нет
Параметр GMC формата : Без точки перехода
Параметр матрицы формата : Выборочная
Идентификатор кодека : XVID
Идентификатор кодека/Подсказка : XviD
Продолжительность : 1 ч. 39 м.
Битрейт : 911 Кбит/сек
Ширина : 576 пикселей
Высота : 432 пикселя
Соотношение сторон : 4:3
Частота кадров : 25,000 кадров/сек
Цветовое пространство : YUV
Субдискретизация насыщенности : 4:2:0
Битовая глубина : 8 бит
Тип развёртки : Прогрессивная
Метод сжатия : С потерями
Бит/(Пиксели*Кадры) : 0.146
Размер потока : 648 Мбайт (87%)
Библиотека кодирования : XviD 73

Аудио
Идентификатор : 1
Формат : MPEG Audio
Версия формата : Version 1
Профиль формата : Layer 3
Идентификатор кодека : 55
Идентификатор кодека/Подсказка : MP3
Продолжительность : 1 ч. 39 м.
Вид битрейта : Постоянный
Битрейт : 128 Кбит/сек
Каналы : 2 канала
Частота : 48,0 КГц
Метод сжатия : С потерями
Размер потока : 91,0 Мбайт (12%)
Выравнивание : Соединение по промежуткам
Продолжительность промежутка : 40 мс. (1,00 видеокадр)
Время предзагрузки промежутка : 504 мс.
Библиотека кодирования : LAME3.99r
Настройки программы : -m s -V 4 -q 2 -lowpass 17 -b 128
pb.wtf



Скачать Великая сила через торрент http://s020.radikal.ru/i703/1510/49/80a7d0964903.png Скачать фильм Великая сила через торрент бесплантно в хорошем качестве Описание:Профессор Лавров, ученик и последователь Мичурина, пытается опровергнуть открытия теории наследственности и успешно работает над ... 10 10 2
Info! Золотая раздача, скачанное не засчитывается.
Торрент: Зарегистрирован [2015-10-05 08:27] · скачан: 3 раз
Статус: √ проверено
Размер: 745 MB
Как cкачать? Как скачать Великая сила через торрент | qTorrent

% Раздел Тема Автор DL S | L
Drum Bass, Jungle (Albums [LPs], VAs) (mp3) [ 74 MB ] Нейромонах Феофан - Велики силы добра 2016 / MP3 / 320 kbps / drum & bass neurofunk DJKOCMOC Скачать
2 | 0
Кино СССР [ 1.46 GB ] Великая сила [1950 СССР DVDRip-AVC от AVP Studio] AVP Studio Скачать
1 | 0
Кино СССР [ 1.46 GB ] Великая сила [1950 СССР DVDRip от AVP Studio] AVP Studio Скачать
1 | 0
Мультсериалы [ 8.15 GB ] Трансформеры: Воины великой Силы / Transformers: Super God Masterforce [1988 меха DVDRip многоголосый] Bq Скачать
1 | 0
Документальные фильмы и телепередачи [ 514 MB ] Странное дело. Великаны. Темные силы Галактики [Эфир от 2012.09.07] [2012 документальный SATRip] akcent Скачать
1 | 0


>> Регистрируемся здесь <<






Отзывы и комментарии о схеме читаем и пишем здесь: ---> Отзывы и комментарии о схеме

Новые благодарочки в телеграм довольных пользователей:
скриншот   скриншот   скриншот   скриншот   скриншот
    Дорогой пользователь! Огромная просьба, поблагодарите релизера, оцените раздачу и оставьте свои комментарий, если Вы скачали Великая сила через торрент бесплатно! Внесите свою лепту в развитие PiratBit!
    Комментировать посты могут только пользователи прошедшие не сложную регистрацию
    Показать сообщения:    

    Великая сила через торрент
    Скачать бесплатно Великая сила
    Великая сила скачать торрент
    Великая сила смотреть онлайн
    Cкачать фильм Великая сила бесплатно
    Великая сила скачать торрент в хорошем качестве
    Великая сила смотреть онлайн бесплатно в хорошем качестве


    Вы не можете начинать темы
    Вы не можете отвечать на сообщения
    Вы не можете редактировать свои сообщения
    Вы не можете удалять свои сообщения
    Вы не можете голосовать в опросах
    Вы не можете прикреплять файлы к сообщениям
    Вы можете скачивать файлы