Ссылка на приватное зеркало нашего сайта всего за 1$. Внимание количество ограничено!!!

2 сезон

iTunes

1 сезон

1

iTunes

iTunes

iTunes

1 сезон

RePack

30

ИГРА 18+

pack

ВАЖНО

!!Акция!!

Alien_RageХит недели

RePack

MK11
pack

Забери бонус

RePack

jed

!!Акция!!

Alien_Rage

RePack

fifa19

RePack

Assassins Creed: Odyssey

RePack

NEED FOR SPEED™ PAYBACK

4 сезон

9 сезон

Бесстыжие 9 сезон

Все сериалы

все сериалы на PB.wtf

RePack

FAR CRY 5
  

Левша / Southpaw (Антуан Фукуа ) [2015, драма, спорт, BDRip 720p] DUB, AVO pb.wtf

Левша через торрент pb.wtf

Размер: 7.9 GB | Добавлен: 4 года 11 мес. назад | Торрент скачан:194 раза
Скачать  

05-10-2015 15:46 Левша Скачать торрент  

Левша / Southpaw
«Преодолей судьбу»


Год выпуска: 2015
Страна: США
Жанр: драма, спорт
Продолжительность: 02:03:49
Перевод: Дублированный - [Лицензия], Авторский (одноголосый)[М. Чадов]
Субтитры: английские, английские (SDH)
Режиссер: Антуан Фукуа
В ролях: Джейк Джилленхол , Рэйчел МакАдамс , Форест Уитакер , Уна Лоуренс , Фифти Сент , Скайлан Брукс , Наоми Харрис , Виктор Ортис , Бо Напп , Мигель Гомес , Доминик Колон , Хосе Карабалло
Описание:
У боксера Билли Хоупа все было прекрасно: звание чемпиона, красавица-жена и любимая дочка. Но фортуна отворачивается от него: при трагических обстоятельствах погибает любимая жена, дисквалификация на ринге, нулевые доходы, суд лишает его родительских прав... Хоуп должен отстоять звание чемпиона и вернуть дочь. Есть ли у Хоупа шансы на победу? Все решит его знаменитый хук левой...

R - Лицам до 17 лет обязательно присутствие взрослого
Качество: BDRip 720p
Контейнер (Расширение): MKV
Видео: 1280x532, 7053 Кбит/сек, 23,976 кадр/сек, 0,432 Бит/[Пиксели*Кадры]
Аудио №1: русский / AC3 / 5.1 / 48 kHz / 640 kbps / 16 bit |Дублированный|
Аудио №2: русский / AC3 / 5.1 / 48 kHz / 640 kbps / 16 bit |Авторский, М. Чадов|
Аудио №3: английский / AC3 / 5.1 / 48 kHz / 640 kbps / 16 bit
Навигация по главам(Чаптеры): есть
Видеоряд HiDtРелиз от: Сообщество:
  • Фильм посвящен памяти композитора Джеймса Хорнера.
  • Сцены боксерских поединков в Лас-Вегасе и в Мэдисон-сквер-гарден были отсняты за две недели. Оба поединка на самом деле снимались в Индианском университете в Пенсильвании.
  • Хотя Эминем не снялся в фильме из-за своей активной музыкальной жизни, он составил для «Левши» саундтрек и сам исполнил одну из песен – «Phenomenal».
  • Первоначально проект рассматривался как неофициальное продолжение к фильму «8 миля» (2002) с Эминемом (который на самом деле является левшой) в главной роли. Однако в конечном итоге сценарий претерпел существенные изменения и от этой идеи отказались.
  • Оригинальное название фильма - «Southpaw» относится к боксерской терминологии, означая стойку, которую чаще используют боксеры-левши.
  • Из-за небольшого бюджета у режиссера не было денег, чтобы заплатить Джеймсу Хорнеру за написание музыки к фильму. Однако Джеймсу настолько понравилась идея фильма, что он написал музыку бесплатно.
  • Лупита Нионго могла исполнить роль Анджелы Риверы, но ей пришлось покинуть проект из-за занятости в фильме «Звёздные войны: Пробуждение силы» (2015).
  • Готовясь к своей роли, Джейк Джилленхол изучал боксерский стиль Мигеля Котто.
  • Райан Гослинг, Брэдли Купер и Джереми Реннер рассматривались на главную роль в этом фильме.
  • Изначально композитором фильма должен был стать Гарри Грегсон-Уильямс. Он даже заявил в одном своем интервью в конце 2014 году, что уже приступил к написанию музыки. Однако вскоре после этого было объявлено, что композитором будет Джеймс Хорнер.
  • Код:

    Format                                   : Matroska
    Format version                           : Version 2
    File size                                : 7.90 GiB
    Duration                                 : 2h 3mn
    Overall bit rate                         : 9 138 Kbps
    Movie name                               : Southpaw.(2015).BDRip.720p.[denis100]
    Encoded date                             : UTC 2015-11-18 17:29:14
    Writing application                      : mkvmerge v5.8.0 ('No Sleep / Pillow') built on Sep  2 2012 15:37:04
    Writing library                          : libebml v1.2.3 + libmatroska v1.3.0

    Video
    ID                                       : 1
    Format                                   : AVC
    Format/Info                              : Advanced Video Codec
    Format profile                           : High@L4.1
    Format settings, CABAC                   : Yes
    Format settings, ReFrames                : 12 frames
    Codec ID                                 : V_MPEG4/ISO/AVC
    Duration                                 : 2h 3mn
    Bit rate                                 : 7 036 Kbps
    Width                                    : 1 280 pixels
    Height                                   : 532 pixels
    Display aspect ratio                     : 2.40:1
    Frame rate                               : 23.976 fps
    Color space                              : YUV
    Chroma subsampling                       : 4:2:0
    Bit depth                                : 8 bits
    Scan type                                : Progressive
    Bits/(Pixel*Frame)                       : 0.431
    Stream size                              : 6.09 GiB (77%)
    Title                                    : Southpaw.(2015).BDRip.720p.[denis100]
    Writing library                          : x264 core 148 r2597 e86f3a1
    Encoding settings                        : cabac=1 / ref=12 / deblock=1:-3:-3 / analyse=0x3:0x133 / me=tesa / subme=11 / psy=1 / psy_rd=1.00:0.00 / mixed_ref=1 / me_range=32 / chroma_me=1 / trellis=2 / 8x8dct=1 / cqm=0 / deadzone=21,11 / fast_pskip=0 / chroma_qp_offset=-2 / threads=12 / lookahead_threads=3 / sliced_threads=0 / nr=0 / decimate=1 / interlaced=0 / bluray_compat=0 / constrained_intra=0 / bframes=10 / b_pyramid=2 / b_adapt=2 / b_bias=0 / direct=3 / weightb=1 / open_gop=0 / weightp=2 / keyint=240 / keyint_min=23 / scenecut=40 / intra_refresh=0 / rc_lookahead=60 / rc=crf / mbtree=0 / crf=16.1 / qcomp=0.73 / qpmin=0 / qpmax=69 / qpstep=4 / vbv_maxrate=62500 / vbv_bufsize=78125 / crf_max=0.0 / nal_hrd=none / filler=0 / ip_ratio=1.24 / pb_ratio=1.18 / aq=1:0.80
    Language                                 : English
    Default                                  : Yes
    Forced                                   : No

    Audio #1
    ID                                       : 2
    Format                                   : AC-3
    Format/Info                              : Audio Coding 3
    Mode extension                           : CM (complete main)
    Codec ID                                 : A_AC3
    Duration                                 : 2h 3mn
    Bit rate mode                            : Constant
    Bit rate                                 : 640 Kbps
    Channel(s)                               : 6 channels
    Channel positions                        : Front: L C R, Side: L R, LFE
    Sampling rate                            : 48.0 KHz
    Bit depth                                : 16 bits
    Compression mode                         : Lossy
    Stream size                              : 567 MiB (7%)
    Title                                    : Дублированный, BD RUS
    Language                                 : Russian
    Default                                  : Yes
    Forced                                   : No

    Audio #2
    ID                                       : 3
    Format                                   : AC-3
    Format/Info                              : Audio Coding 3
    Mode extension                           : CM (complete main)
    Codec ID                                 : A_AC3
    Duration                                 : 2h 3mn
    Bit rate mode                            : Constant
    Bit rate                                 : 640 Kbps
    Channel(s)                               : 6 channels
    Channel positions                        : Front: L C R, Side: L R, LFE
    Sampling rate                            : 48.0 KHz
    Bit depth                                : 16 bits
    Compression mode                         : Lossy
    Stream size                              : 567 MiB (7%)
    Title                                    : Авторский, М.Чадов
    Language                                 : Russian
    Default                                  : No
    Forced                                   : No

    Audio #3
    ID                                       : 4
    Format                                   : AC-3
    Format/Info                              : Audio Coding 3
    Mode extension                           : CM (complete main)
    Codec ID                                 : A_AC3
    Duration                                 : 2h 3mn
    Bit rate mode                            : Constant
    Bit rate                                 : 640 Kbps
    Channel(s)                               : 6 channels
    Channel positions                        : Front: L C R, Side: L R, LFE
    Sampling rate                            : 48.0 KHz
    Bit depth                                : 16 bits
    Compression mode                         : Lossy
    Stream size                              : 567 MiB (7%)
    Language                                 : English
    Default                                  : No
    Forced                                   : No

    Text #1
    ID                                       : 5
    Format                                   : UTF-8
    Codec ID                                 : S_TEXT/UTF8
    Codec ID/Info                            : UTF-8 Plain Text
    Language                                 : English
    Default                                  : No
    Forced                                   : No

    Text #2
    ID                                       : 6
    Format                                   : UTF-8
    Codec ID                                 : S_TEXT/UTF8
    Codec ID/Info                            : UTF-8 Plain Text
    Title                                    : SDH
    Language                                 : English
    Default                                  : No
    Forced                                   : No

    Menu
    00:00:00.000                             : en:00:00:00.000
    00:08:49.696                             : en:00:08:49.696
    00:12:58.569                             : en:00:12:58.569
    00:20:00.658                             : en:00:20:00.658
    00:23:40.085                             : en:00:23:40.085
    00:29:34.147                             : en:00:29:34.147
    00:34:59.556                             : en:00:34:59.556
    00:39:44.299                             : en:00:39:44.299
    00:45:46.285                             : en:00:45:46.285
    00:52:38.655                             : en:00:52:38.655
    00:59:28.815                             : en:00:59:28.815
    01:07:08.733                             : en:01:07:08.733
    01:12:49.824                             : en:01:12:49.824
    01:18:14.481                             : en:01:18:14.481
    01:23:40.057                             : en:01:23:40.057
    01:29:40.417                             : en:01:29:40.417
    01:37:00.148                             : en:01:37:00.148
    01:45:19.897                             : en:01:45:19.897
    01:55:01.061                             : en:01:55:01.061
    01:59:38.505                             : en:01:59:38.505

    x264 [info]: frame I:1439 Avg QP:14.06 size:110682
    x264 [info]: frame P:42138 Avg QP:15.00 size: 55136
    x264 [info]: frame B:134548 Avg QP:16.10 size: 31352
    pb.wtf



    Скачать Левша через торрент http://i72.fastpic.ru/big/2015/1005/c8/c67847e670f5935c530b191ec1c230c8.png Скачать фильм Левша через торрент бесплантно в хорошем качестве Описание:У боксера Билли Хоупа все было прекрасно: звание чемпиона, красавица-жена и любимая дочка. Но фортуна отворачивается от него: при ... 9.9 10 10
    Info! Золотая раздача, скачанное не засчитывается.
    Торрент: Зарегистрирован [2015-11-18 17:37] · скачан: 194 раз
    Статус: √ проверено
    Размер: 7.9 GB
    Как cкачать? Как скачать Левша через торрент | qTorrent



    Последний раз редактировалось: _denis_100 (2015-11-18 17:37), всего редактировалось 1 раз

    28-11-2019 20:33  

    Отключить всю рекламу на сайте

    17-10-2015 22:14 Левша Скачать торрент  

    Только что посмотрел... Фильм просто бомба... Из данного жанра это самый лучший фильм за последние лет 10... Несколько раз прослезился, если бы не жена рядом, то разрыдался бы... Рекомендую!pb.wtf



    18-11-2015 17:45 Левша Скачать торрент  

    Обновил: замена на лицензию + добавлен авторский переводpb.wtf



    18-11-2015 19:12 Левша Скачать торрент  

    Поглядим :sarcastic_blum:pb.wtf



    19-11-2015 18:57 Левша Скачать торрент  

    Нудный фильмpb.wtf



      Дорогой пользователь! Огромная просьба, поблагодарите релизера, оцените раздачу и оставьте свои комментарий, если Вы скачали Левша через торрент бесплатно! Внесите свою лепту в развитие PiratBit!
      Комментировать посты могут только пользователи прошедшие не сложную регистрацию
      Показать сообщения:    

      Левша через торрент
      Скачать бесплатно Левша
      Левша скачать торрент
      Левша смотреть онлайн
      Cкачать фильм Левша бесплатно
      Левша скачать торрент в хорошем качестве
      Левша смотреть онлайн бесплатно в хорошем качестве


      Вы не можете начинать темы
      Вы не можете отвечать на сообщения
      Вы не можете редактировать свои сообщения
      Вы не можете удалять свои сообщения
      Вы не можете голосовать в опросах
      Вы не можете прикреплять файлы к сообщениям
      Вы можете скачивать файлы