Ссылка на приватное зеркало нашего сайта всего за 1$. Внимание количество ограничено!!!

2 сезон

iTunes

1 сезон

1

iTunes

iTunes

iTunes

1 сезон

RePack

30

ИГРА 18+

pack

ВАЖНО

!!Акция!!

Alien_RageХит недели

RePack

MK11
pack

Забери бонус

RePack

jed

!!Акция!!

Alien_Rage

RePack

fifa19

RePack

Assassins Creed: Odyssey

RePack

NEED FOR SPEED™ PAYBACK

4 сезон

9 сезон

Бесстыжие 9 сезон

Все сериалы

все сериалы на PB.wtf

RePack

FAR CRY 5
  

Ментовские войны / Сезон: 9 / Серии: 1-16 из 16 (Денис Скворцов) [2015, детектив, криминал, SATRip-AVC] pb.wtf

Ментовские войны через торрент pb.wtf

Размер: 8.6 GB | Добавлен: 5 лет назад | Торрент скачан:162 раза
Скачать  

05-10-2015 17:16 Ментовские войны Скачать торрент  

Ментовские войны

Год выпуска: 2015
Производство: Россия / Студия Панорама
Жанр: детектив, криминал
Продолжительность: ~ 00:45:00
Субтитры: нет

Режиссёр: Денис Скворцов

В ролях: Александр Устюгов, Дмитрий Быковский-Ромашов, Всеволод Цурило, Мария Иванова (IV), Ольга Павловец, Андрей Родимов, Роберт Студеновский, Дмитрий Мухамадеев, Сергей Евсеев, Андрей Кузнецов, Дмитрий Лебедев (III), Антон Гриценко, Денис Баканов, Михаил Новицкий, Максим Матвеев (II), Сергей Хомченков, Сергей Выборнов, Владимир Маслаков, Ксения Алексеева, Андрей Полищук, Сергей Гарусов, Виктор Янишевский, Стэнли Красовицки, Сергей Стукалов, Мария Фефилова, Антон Успенский, Антон Быстров, Константин Китанин

Описание: В девятом сезоне Роман Шилов возвращается в строй и переводится в Главное Управление МВД по Северу-Западу. Теперь зона его ответственности — весь регион. Отдел Шилова будет заниматься раскрытием резонансных преступлений. С «гражданки» вернётся Джексон, а из патрульно-постовой службы — Паша Арнаутов.
Первое дело отдела Шилова не заставило себя долго ждать — в торговом центре одного из городов Карелии происходит взрыв. Есть жертвы. Шилов подключается к расследованию и выясняет, что причиной трагедии стала борьба двух влиятельных лиц Лесноозерска за должность мэра и контроль над прибыльным предприятием города. Борьба идет не на жизнь, а на смерть. Шилова пытаются пустить по ложному следу, надавить на его руководство, угрожают его семье, но Шилов и его друзья идут до конца. Они задерживают преступника, но это всего лишь исполнитель. Шилов понимает, что прошел только «первый уровень» на подступах к преступной организации, с которой ему еще предстоит столкнуться… В ходе следующего расследования Шилов вновь пересекается со своей случайной знакомой Марианной, о которой он вспоминал все это время. Марианне очень нужна его помощь. Похоже, что в личной жизни Шилова грядут большие перемены.



Качество: SATRip
Формат: MKV
Видео кодек: H.264
Аудио кодек: AC3
Видео: MPEG4 Video (H264), 720x400, 25fps,1722 Kbps,bit/pixel 0.212
Аудио: AC3 48000Hz, stereo, 192kbps,2 ch
Общее
Уникальный идентификатор : 228891312350923710249640010182226405298 (0xAC32DCFDBBE776B38E4B18F89740E7B2)
Полное имя : D:\Ментовские войны 9\01 серия.mkv
Формат : Matroska
Версия формата : Version 2
Размер файла : 550 Мбайт
Продолжительность : 44 м.
Общий поток : 1722 Кбит/сек
Дата кодирования : UTC 2015-10-05 16:55:44
Программа кодирования : mkvmerge v7.8.0 ('River Man') 32bit built on Apr 3 2015 12:11:22
Библиотека кодирования : libebml v1.3.1 + libmatroska v1.4.2

Видео
Идентификатор : 1
Формат : AVC
Формат/Информация : Advanced Video Codec
Профиль формата : High@L4.1
Параметр CABAC формата : Да
Параметр ReFrames формата : 9 кадров
Идентификатор кодека : V_MPEG4/ISO/AVC
Продолжительность : 44 м.
Битрейт : 1528 Кбит/сек
Ширина : 720 пикселей
Высота : 400 пикселей
Соотношение сторон : 16:9
Режим частоты кадров : Постоянный
Частота кадров : 25,000 кадров/сек
Цветовое пространство : YUV
Субдискретизация насыщенности : 4:2:0
Битовая глубина : 8 бит
Тип развёртки : Прогрессивная
Бит/(Пиксели*Кадры) : 0.212
Размер потока : 478 Мбайт (87%)
Библиотека кодирования : x264 core 146 r2538 121396c
Настройки программы : cabac=1 / ref=9 / deblock=1:-3:-3 / analyse=0x3:0x133 / me=umh / subme=9 / psy=1 / psy_rd=1.00:0.00 / mixed_ref=0 / me_range=16 / chroma_me=1 / trellis=2 / 8x8dct=1 / cqm=0 / deadzone=21,11 / fast_pskip=1 / chroma_qp_offset=-2 / threads=2 / lookahead_threads=4 / sliced_threads=0 / nr=0 / decimate=1 / interlaced=0 / bluray_compat=0 / constrained_intra=0 / bframes=9 / b_pyramid=2 / b_adapt=1 / b_bias=0 / direct=3 / weightb=1 / open_gop=0 / weightp=2 / keyint=250 / keyint_min=25 / scenecut=40 / intra_refresh=0 / rc_lookahead=40 / rc=2pass / mbtree=1 / bitrate=1528 / ratetol=1.0 / qcomp=0.60 / qpmin=0 / qpmax=69 / qpstep=4 / cplxblur=20.0 / qblur=0.5 / ip_ratio=1.40 / aq=1:1.50
Default : Да
Forced : Нет
Цветовой диапазон : Limited
Основные цвета : BT.601 PAL
Характеристики трансфера : BT.470 System B, BT.470 System G
Коэффициенты матрицы : BT.601

Аудио
Идентификатор : 2
Формат : AC-3
Формат/Информация : Audio Coding 3
Расширение режима : CM (complete main)
Параметр Endianness формата : Big
Идентификатор кодека : A_AC3
Продолжительность : 44 м.
Вид битрейта : Постоянный
Битрейт : 192 Кбит/сек
Каналы : 2 канала
Расположение каналов : Front: L R
Частота : 48,0 КГц
Метод сжатия : С потерями
Размер потока : 61,4 Мбайт (11%)
Default : Да
Forced : Нет
Рекламы нет.Добавлены 15-16 серия.pb.wtf



Скачать Ментовские войны через торрент http://i72.fastpic.ru/big/2015/1005/8f/7687f5d06582e549702ac42937d2a08f.jpg Скачать фильм Ментовские войны через торрент бесплантно в хорошем качестве Описание: В девятом сезоне Роман Шилов возвращается в строй и переводится в Главное Управление МВД по Северу-Западу. Теперь зона его ... 9.6 10 43
Info! Золотая раздача, скачанное не засчитывается.
Торрент: Зарегистрирован [2015-10-15 23:43] · скачан: 162 раз
Статус: √ проверено
Размер: 8.6 GB
Как cкачать? Как скачать Ментовские войны через торрент | qTorrent

% Раздел Тема Автор DL S | L
Наши сериалы [ 42.29 GB ] Ментовские войны [2015 HDTV 1080i] shuller Скачать
1 | 0
Наши сериалы [ 8.6 GB ] Ментовские войны [2015 HDTVRip] Бумер Скачать
1 | 0
Наши сериалы [ 9.77 GB ] Ментовские войны / Сезон: 9 / Серии 1-16 из 16 [2015 Россия SATRip) GEKADOL Скачать
1 | 0


Последний раз редактировалось: aleksan55 (2015-10-15 23:43), всего редактировалось 8 раз(а)

28-11-2019 20:33  

Отключить всю рекламу на сайте

05-10-2015 18:12 Ментовские войны Скачать торрент  

Годный сериалчик) осилил до 5 го сезона)pb.wtf



13-10-2015 19:03 Ментовские войны Скачать торрент  

Сериал охеренный давно смотрю все сезоныpb.wtf



14-10-2015 20:49 Ментовские войны Скачать торрент  

R.G. Andrey писал(а):

Сериал охеренный давно смотрю все сезоны

И правильно делаешь ...pb.wtf



    Дорогой пользователь! Огромная просьба, поблагодарите релизера, оцените раздачу и оставьте свои комментарий, если Вы скачали Ментовские войны через торрент бесплатно! Внесите свою лепту в развитие PiratBit!
    Комментировать посты могут только пользователи прошедшие не сложную регистрацию
    Показать сообщения:    

    Ментовские войны через торрент
    Скачать бесплатно Ментовские войны
    Ментовские войны скачать торрент
    Ментовские войны смотреть онлайн
    Cкачать фильм Ментовские войны бесплатно
    Ментовские войны скачать торрент в хорошем качестве
    Ментовские войны смотреть онлайн бесплатно в хорошем качестве


    Вы не можете начинать темы
    Вы не можете отвечать на сообщения
    Вы не можете редактировать свои сообщения
    Вы не можете удалять свои сообщения
    Вы не можете голосовать в опросах
    Вы не можете прикреплять файлы к сообщениям
    Вы можете скачивать файлы