Ссылка на приватное зеркало всего за 1$. Внимание количество ограничено!!!

OK

1+1

iTunes

мы

OK

1

WEB-DLRip

Джокер

Пифагор

Ведьмак / The Witcher сериал

iTunes

ПШазам

ОК

Оно 2

iTunes

30
pack

Вам бонус

ВАЖНО

!!Акция!!

Alien_RageХит недели

RePack

Resident Evil 21

ИГРА 18+

pack

RePack

jed

RePack

fifa19

RePack

Assassins Creed: Odyssey

RePack

NEED FOR SPEED™ PAYBACK

4 сезон

9 сезон

Бесстыжие 9 сезон

Все сериалы

все сериалы на PB.wtf

RePack

FAR CRY 5
  

Левша / Southpaw (Антуан Фукуа / Antoine Fuqua) [2015, драма, спорт, BDRip-AVC от potroks] Dub pb.wtf

Левша через торрент pb.wtf

Размер: 1.46 GB | Добавлен: 4 года 3 мес. назад | Торрент скачан:224 раза
Скачать  

06-10-2015 04:50 Левша Скачать торрент  

Левша / Southpaw
«Преодолей судьбу»
Год выпуска: 2015
Страна: США / WanDa Pictures, Fuqua Films, Riche Productions
Жанр: драма, спорт
Продолжительность: 02:03:47
Перевод: Дубляж [iTunes]
Субтитры: английские (Full), английские (SDH)
Навигация по главам: есть
Режиссер: Антуан Фукуа / Antoine Fuqua
В ролях:

Джейк Джилленхол (Billy Hope), Рэйчел МакАдамс (Maureen Hope), Форест Уитакер (Tick Wills), Уна Лоуренс (Leila Hope), Фифти Сент (Jordan Mains), Скайлан Брукс (Hoppy), Наоми Харрис (Angela Rivera), Виктор Ортис (Ramone), Бо Напп (Jon Jon), Мигель Гомес (Miguel «Magic» Escobar), Доминик Колон (Mikey), Хосе Карабалло (Eli Frost)
Описание: У боксера Билли Хоупа все было прекрасно: звание чемпиона, красавица-жена и любимая дочка. Но фортуна отворачивается от него: при трагических обстоятельствах погибает любимая жена, дисквалификация на ринге, нулевые доходы, суд лишает его родительских прав... Хоуп должен отстоять звание чемпиона и вернуть дочь. Есть ли у Хоупа шансы на победу? Все решит его знаменитый хук левой...

Качество: BDRip-AVC
Формат: MKV
Видео кодек: AVC
Аудио кодек: AC3
Видео: AVC, 944x392 (2.40:1), 1305 kbps, 23,976 fps, 0,147 bit/pixel
Аудио: AC3 / 5.1 / 48 kHz / 384 kbps / 16 bit

Релиз группы:
Автор рипа: potroks

Код:

General
Unique ID                                : 246354896016105751240361179404001581970 (0xB9563A246E27CAE19678BCFFA9D39B92)
Complete name                            : Levsha.2015.RUS.BDRip.x264.-HELLYWOOD.mkv
Format                                   : Matroska
Format version                           : Version 4 / Version 2
File size                                : 1.46 GiB
Duration                                 : 2h 3mn
Overall bit rate                         : 1 691 Kbps
Movie name                               : Southpaw (2015) - HELLYWOOD
Encoded date                             : UTC 2015-10-06 02:30:09
Writing application                      : mkvmerge v5.9.0 ('On The Loose') built on Dec 15 2012 16:39:58
Writing library                          : libebml v1.3.0 + libmatroska v1.4.0

Video
ID                                       : 1
Format                                   : AVC
Format/Info                              : Advanced Video Codec
Format profile                           : High@L4.1
Format settings, CABAC                   : Yes
Format settings, ReFrames                : 12 frames
Codec ID                                 : V_MPEG4/ISO/AVC
Duration                                 : 2h 3mn
Bit rate                                 : 1 305 Kbps
Width                                    : 944 pixels
Height                                   : 392 pixels
Display aspect ratio                     : 2.40:1
Frame rate                               : 23.976 fps
Color space                              : YUV
Chroma subsampling                       : 4:2:0
Bit depth                                : 8 bits
Scan type                                : Progressive
Bits/(Pixel*Frame)                       : 0.147
Stream size                              : 1.10 GiB (75%)
Title                                    : potroks
Writing library                          : x264 core 148 r2597M e86f3a1
Encoding settings                        : cabac=1 / ref=12 / deblock=1:-2:-2 / analyse=0x3:0x133 / me=umh / subme=11 / psy=1 / psy_rd=1.00:0.00 / mixed_ref=1 / me_range=48 / chroma_me=1 / trellis=2 / 8x8dct=1 / cqm=0 / deadzone=21,11 / fast_pskip=0 / chroma_qp_offset=-2 / threads=10 / lookahead_threads=2 / sliced_threads=0 / nr=0 / decimate=1 / interlaced=0 / bluray_compat=0 / constrained_intra=0 / bframes=13 / b_pyramid=2 / b_adapt=2 / b_bias=0 / direct=3 / weightb=1 / open_gop=0 / weightp=2 / keyint=250 / keyint_min=23 / scenecut=40 / intra_refresh=0 / rc=2pass / mbtree=0 / bitrate=1305 / ratetol=1.0 / qcomp=0.70 / qpmin=0 / qpmax=69 / qpstep=4 / cplxblur=20.0 / qblur=0.5 / ip_ratio=1.40 / pb_ratio=1.30 / aq=1:0.80
Language                                 : English
Default                                  : Yes
Forced                                   : No

Audio
ID                                       : 2
Format                                   : AC-3
Format/Info                              : Audio Coding 3
Mode extension                           : CM (complete main)
Codec ID                                 : A_AC3
Duration                                 : 2h 3mn
Bit rate mode                            : Constant
Bit rate                                 : 384 Kbps
Channel(s)                               : 6 channels
Channel positions                        : Front: L C R, Side: L R, LFE
Sampling rate                            : 48.0 KHz
Bit depth                                : 16 bits
Compression mode                         : Lossy
Stream size                              : 340 MiB (23%)
Title                                    : Dub | DD 5.1 @ 384 kbps - iTunes
Language                                 : Russian
Default                                  : Yes
Forced                                   : No

Text #1
ID                                       : 3
Format                                   : UTF-8
Codec ID                                 : S_TEXT/UTF8
Codec ID/Info                            : UTF-8 Plain Text
Title                                    : Full
Language                                 : English
Default                                  : No
Forced                                   : No

Text #2
ID                                       : 4
Format                                   : UTF-8
Codec ID                                 : S_TEXT/UTF8
Codec ID/Info                            : UTF-8 Plain Text
Title                                    : SDH
Language                                 : English
Default                                  : No
Forced                                   : No

Menu
00:00:00.000                             : :(01)00:00:00:000
00:08:49.695                             : :(02)00:08:49:695
00:12:58.568                             : :(03)00:12:58:568
00:20:00.656                             : :(04)00:20:00:656
00:23:40.085                             : :(05)00:23:40:085
00:29:34.146                             : :(06)00:29:34:146
00:34:59.554                             : :(07)00:34:59:554
00:39:44.297                             : :(08)00:39:44:297
00:45:46.284                             : :(09)00:45:46:284
00:52:38.655                             : :(10)00:52:38:655
00:59:28.815                             : :(11)00:59:28:815
01:07:08.733                             : :(12)01:07:08:733
01:12:49.823                             : :(13)01:12:49:823
01:18:14.479                             : :(14)01:18:14:479
01:23:40.055                             : :(15)01:23:40:055
01:29:40.416                             : :(16)01:29:40:416
01:37:00.146                             : :(17)01:37:00:146
01:45:19.895                             : :(18)01:45:19:895
01:55:01.060                             : :(19)01:55:01:060
01:59:38.503                             : :(20)01:59:38:503

pb.wtf



Скачать Левша через торрент http://i72.fastpic.ru/big/2015/1006/4c/c5b0cc22730740202d3788e25411cc4c.png Скачать фильм Левша через торрент бесплантно в хорошем качестве Описание: У боксера Билли Хоупа все было прекрасно: звание чемпиона, красавица-жена и любимая дочка. Но фортуна отворачивается от него: ... 10 10 3
Info! Золотая раздача, скачанное не засчитывается.
Торрент: Зарегистрирован [2015-10-06 04:50] · скачан: 224 раз
Статус: √ проверено
Размер: 1.46 GB
Как cкачать? Как скачать Левша через торрент | qTorrent

% Раздел Тема Автор DL S | L
Фильмы 2015 [DVDrip, WEB-DLRip, HDrip] [ 1.46 GB ] Левша / Southpaw [2015 BDRip] DUB Twi7ter Скачать
2 | 0
Фильмы 2015 [DVDrip, WEB-DLRip, HDrip] [ 2.18 GB ] Левша / Southpaw [2015 BDRip-AVC от sokol_ok] DUB sokol_ok Скачать
2 | 0
Фильмы [HD 720p, 1080p] (Хороший звук DUB, MVO) [ 7.9 GB ] Левша / Southpaw [2015 BDRip 720p] DUB AVO _denis_100 Скачать
1 | 0
Фильмы 2015 [DVDrip, WEB-DLRip, HDrip] [ 1.45 GB ] Левша / Southpaw [2015 BDRip-AVC от sokol_ok] DUB sokol_ok Скачать
2 | 0
Фильмы 2015 [DVDrip, WEB-DLRip, HDrip] [ 2.18 GB ] Левша / Southpaw [2015 BDRip-AVC] DUB potroks Скачать
1 | 0
Фильмы 2015 [DVDrip, WEB-DLRip, HDrip] [ 1.46 GB ] Левша / Southpaw [2015 HDRip-AVC от Ворон] DUB Ворон Скачать
1 | 0
Фильмы 2015 [DVDrip, WEB-DLRip, HDrip] [ 2.05 GB ] Левша / Southpaw [2015 HDRip] killermax2013 Скачать
1 | 0

28-11-2019 20:33  

Отключить всю рекламу на сайте

    Дорогой пользователь! Огромная просьба, поблагодарите релизера, оцените раздачу и оставьте свои комментарий, если Вы скачали Левша через торрент бесплатно! Внесите свою лепту в развитие PiratBit!
    Комментировать посты могут только пользователи прошедшие не сложную регистрацию
    Показать сообщения:    

    Левша через торрент
    Скачать бесплатно Левша
    Левша скачать торрент
    Левша смотреть онлайн
    Cкачать фильм Левша бесплатно
    Левша скачать торрент в хорошем качестве
    Левша смотреть онлайн бесплатно в хорошем качестве


    Вы не можете начинать темы
    Вы не можете отвечать на сообщения
    Вы не можете редактировать свои сообщения
    Вы не можете удалять свои сообщения
    Вы не можете голосовать в опросах
    Вы не можете прикреплять файлы к сообщениям
    Вы можете скачивать файлы