Ссылка на приватное зеркало нашего сайта всего за 1$. Внимание количество ограничено!!!

2 сезон

iTunes

1 сезон

1

iTunes

iTunes

iTunes

1 сезон

RePack

30

ИГРА 18+

pack

ВАЖНО

!!Акция!!

Alien_RageХит недели

RePack

MK11
pack

Забери бонус

RePack

jed

!!Акция!!

Alien_Rage

RePack

fifa19

RePack

Assassins Creed: Odyssey

RePack

NEED FOR SPEED™ PAYBACK

4 сезон

9 сезон

Бесстыжие 9 сезон

Все сериалы

все сериалы на PB.wtf

RePack

FAR CRY 5
  

Ментовские войны (9 сезон: 1-16 серии из 16) (Денис Скворцов) [2015 г., Боевик, детектив, криминал, HDTVRip] pb.wtf

Ментовские войны через торрент pb.wtf

Размер: 8.6 GB | Добавлен: 5 лет назад | Торрент скачан:767 раз
Скачать  

06-10-2015 12:16 Ментовские войны Скачать торрент  

Ментовские войны
Год выпуска: 2015
Страна: Россия
Жанр: Боевик, детектив, криминал
Продолжительность: 16 х ~ 00:45:00
Перевод : Оригинал
Субтитры: Нет

Режиссер: Денис Скворцов

В ролях: Александр Устюгов, Дмитрий Быковский-Ромашов, Всеволод Цурило, Мария Иванова (IV), Ольга Павловец, Андрей Родимов, Роберт Студеновский, Дмитрий Мухамадеев, Сергей Евсеев, Андрей Кузнецов, Дмитрий Лебедев (III), Антон Гриценко, Денис Баканов, Михаил Новицкий, Максим Матвеев (II), Сергей Хомченков, Сергей Выборнов, Владимир Маслаков, Ксения Алексеева, Андрей Полищук, Сергей Гарусов, Виктор Янишевский, Стэнли Красовицки, Сергей Стукалов, Мария Фефилова, Антон Успенский, Антон Быстров, Константин Китанин, Рустам Насыров, Андрей Шаповал, Андрей Аладьин, Гавриил Федотов, Герасим Архипов, Елизавета Ковалева, Александр Лисицын, Сергей Лысов, Андрей Карако, Дмитрий Олейник, Никита Барсуков

Описание: В девятом сезоне Роман Шилов возвращается в строй и переводится в Главное Управление МВД по Северу-Западу. Теперь зона его ответственности — весь регион. Отдел Шилова будет заниматься раскрытием резонансных преступлений. С «гражданки» вернётся Джексон, а из патрульно-постовой службы — Паша Арнаутов. Первое дело отдела Шилова не заставило себя долго ждать — в торговом центре одного из городов Карелии происходит взрыв. Есть жертвы. Шилов подключается к расследованию и выясняет, что причиной трагедии стала борьба двух влиятельных лиц Лесноозерска за должность мэра и контроль над прибыльным предприятием города. Борьба идет не на жизнь, а на смерть. Шилова пытаются пустить по ложному следу, надавить на его руководство, угрожают его семье, но Шилов и его друзья идут до конца. Они задерживают преступника, но это всего лишь исполнитель. Шилов понимает, что прошел только «первый уровень» на подступах к преступной организации, с которой ему еще предстоит столкнуться… В ходе следующего расследования Шилов вновь пересекается со своей случайной знакомой Марианной, о которой он вспоминал все это время. Марианне очень нужна его помощь. Похоже, что в личной жизни Шилова грядут большие перемены.

Качество: HDTVRip
Формат: AVI
Видео кодек: XviD
Аудио кодек: AC3
Видео: MPEG-4 ,Xvid (720x400), 1600 Кбит/с, 25.000 кадра/сек
Аудио#1: AC3, 2 ch,192 kbps (Rus) 48.0 KHz Оригинал
скриншот   скриншот   скриншот  

Тип потока: Видео
Длительность: 00:44:41
Кодек: MPEG-4 Visual
Кодек/профиль: Advanced Simple@L5
Кодек/ID: XVID
Размеры изображения: 720 x 400 (16:9)
Частота кадров: 25.000 fps
Размер потока: 486 MiB (88%)
Битрейт: 1 520 Kbps
Метод сжатия: Lossy
Библиотека кодирования: XviD 73
Цветовое пространство: YUV
Тип развёртки: Progressive
Колориметрия: 4:2:0
Глубина: 8 bits
:
Тип потока: Звук #1
Длительность: 00:44:41.280
Кодек: AC-3
Кодек/описание: Audio Coding 3
Кодек/ID: 2000
Частота дискретизации: 48.0 KHz
Каналов: 2 channels
Битрейт: 192 Kbps
Битрейт/тип: Constant
Размер потока: 61.4 MiB (11%)
Глубина: 16 bits
Метод сжатия: Lossy

Внимание! Раздача ведётся путём добавления новых серий; при каждом добавлении создётся новый торрент. Чтобы начать докачку новой серии, пользователям необходимо сделать следующее:
Остановить скачивание,
Удалить старый торрент у себя из клиента (старые серии удалять не надо),
Скачать новый торрент и запустить его у себя в клиенте вместо старого, при этом указать клиенту путь в старую папку куда и должно происходить скачивание новых серий.
Ваш клиент при этом должен произвести хеширование (проверку) старой папки (если не производит сам - помогите ему сделать это), и будет докачивать только те серии которых у вас ещё нет. Старые серии при этом не удаляются, а продолжают раздаваться!

Eсли вы уже удалили старые серии, то предотвратить повторную закачку старых серий можно, отжав галочку в соответсвующих местах при запуске нового торрента. По возможности, желательно не удалять старые серии как можно дольше чтобы релизёр не столько продолжал раздавать старые серии, а смог сконцентрироваться на новых.
ДОБАВЛЕНА 15-16 СЕРИЯ ПЕРЕЗАЛЕЙТЕ ТОРРЕНТ ФАИЛpb.wtf



Скачать Ментовские войны через торрент http://pic1.kartinco.top/images/10/lkgm3.jpg Скачать фильм Ментовские войны через торрент бесплантно в хорошем качестве Описание: В девятом сезоне Роман Шилов возвращается в строй и переводится в Главное Управление МВД по Северу-Западу. Теперь зона его ... 9.9 10 67
Info! Золотая раздача, скачанное не засчитывается.
Торрент: Зарегистрирован [2015-10-16 08:39] · скачан: 767 раз
Статус: √ проверено
Размер: 8.6 GB
Как cкачать? Как скачать Ментовские войны через торрент | qTorrent

% Раздел Тема Автор DL S | L
Наши сериалы [ 16.67 GB ] Ментовские войны [2004 HDTV Оригинал] Бумер Скачать
1 | 0
Наши сериалы [ 15.61 GB ] Ментовские войны. Харьков / Сезон: 2 / Серии: 1-28 из 32 [2019 WEBRip] killermax2013 Скачать
1 | 0
Наши сериалы [ 21.76 GB ] Ментовские войны. Харьков / Серии: 1-40 из 40 [2018 SATRip-AVC] bober100 Скачать
1 | 0
Наши сериалы [ 68.95 GB ] Ментовские войны. Харьков / Серии: 1-40 из 40 [2018 WEB-DL 1080p] bober100 Скачать
1 | 0
Наши сериалы [ 35.01 GB ] Ментовские войны. Харьков / Серии: 1-40 из 40 [2018 DVB] bober100 Скачать
1 | 0
Наши сериалы [ 23.56 GB ] Ментовские войны. Харьков / Серии: 1-40 из 40 [2018 WEB-DLRip-AVC] bober100 Скачать
1 | 0
Наши сериалы [ 18.71 GB ] Ментовские войны / Сезон: 11 / Серии: 1-16 из 16 [2017-2018 HDTVRip 720p] bober100 Скачать
1 | 0


Последний раз редактировалось: Бумер (2015-10-16 08:39), всего редактировалось 6 раз(а)

28-11-2019 20:33  

Отключить всю рекламу на сайте

07-10-2015 10:52 Ментовские войны Скачать торрент  

5000 Тысяч очков золотоpb.wtf



07-10-2015 13:51 Ментовские войны Скачать торрент  

ну наконецто! Спасибо!pb.wtf



09-10-2015 15:08 Ментовские войны Скачать торрент  

Спасибо. А когда следующие серии будут?pb.wtf



11-10-2015 14:32 Ментовские войны Скачать торрент  

КрАуСаВчЕгpb.wtf



18-10-2015 19:09 Ментовские войны Скачать торрент  

Как-то непонятно 16 серия закончилась... Продолжение будет?pb.wtf



    Дорогой пользователь! Огромная просьба, поблагодарите релизера, оцените раздачу и оставьте свои комментарий, если Вы скачали Ментовские войны через торрент бесплатно! Внесите свою лепту в развитие PiratBit!
    Комментировать посты могут только пользователи прошедшие не сложную регистрацию
    Показать сообщения:    

    Ментовские войны через торрент
    Скачать бесплатно Ментовские войны
    Ментовские войны скачать торрент
    Ментовские войны смотреть онлайн
    Cкачать фильм Ментовские войны бесплатно
    Ментовские войны скачать торрент в хорошем качестве
    Ментовские войны смотреть онлайн бесплатно в хорошем качестве


    Вы не можете начинать темы
    Вы не можете отвечать на сообщения
    Вы не можете редактировать свои сообщения
    Вы не можете удалять свои сообщения
    Вы не можете голосовать в опросах
    Вы не можете прикреплять файлы к сообщениям
    Вы можете скачивать файлы