Ссылка на приватное зеркало всего за 1$. Внимание количество ограничено!!!

OK

1+1

iTunes

мы

OK

1

WEB-DLRip

Джокер

Пифагор

Ведьмак / The Witcher сериал

Лицензия

ПШазам

ОК

Оно 2

iTunes

30
pack

Вам бонус

ВАЖНО

!!Акция!!

Alien_RageХит недели

RePack

Resident Evil 21

ИГРА 18+

pack

RePack

jed

!!Акция!!

Alien_Rage

RePack

fifa19

RePack

Assassins Creed: Odyssey

RePack

NEED FOR SPEED™ PAYBACK

4 сезон

9 сезон

Бесстыжие 9 сезон

Все сериалы

все сериалы на PB.wtf

RePack

FAR CRY 5
  

Оставленные / Остатки / The Leftovers / Сезон: 2 / Серии 1-10 из 10 (Мими Ледер / Mimi Leder, Карл Франклин / Carl Franklin, Кит Гордон / Keith Gordon) [2015, США, фэнтези, драма, детектив, HDTVRip-AVC] MVO [NewStudio] pb.wtf

Оставленные через торрент pb.wtf

Размер: 12.54 GB | Добавлен: 4 года 1 мес. назад | Торрент скачан:45 раз
Скачать  

06-10-2015 12:19 Оставленные Скачать торрент  

Оставленные / Остатки / The Leftovers
«Льготный период закончится»


  • Год выпуска: 2015
  • Страна: США
  • Жанр: фэнтези, драма, детектив
  • Продолжительность: 01:01:53 (Серия)
  • Перевод: Профессиональный многоголосый закадровый [NewStudio]

  • Режиссер: Мими Ледер / Mimi Leder, Карл Франклин / Carl Franklin, Кит Гордон / Keith Gordon
  • В ролях:

    Джастин Теру (Kevin Garvey), Эми Бреннеман (Laurie Garvey), Кристофер Экклстон (Matt Jamison), Лив Тайлер (Meg Abbott), Крис Зилка (Tom Garvey), Маргарет Куэлли (Jill Garvey), Кэрри Кун (Nora Durst), Эмили Мид (Aimee), Аманда Уоррен (Lucy Warburton), Энн Дауд (Patti Levin), Майкл Гэстон (Dean), Макс Карвер (Adam Frost)


  • Действие разворачивается вокруг группы оставшихся людей в пригородной общине городка Мейплтон. Они должны начать заново строить свои жизни после внезапного и загадочного исчезновения более ста человек.
  • Рейтинг:



  • Качество: HDTVRip-AVC
  • Формат: :MPEG-4
  • Видео кодек: AVC
  • Аудио кодек: AC3
  • Видео: 2380 Кбит/сек , 1024*576 (16:9), в 23,976 кадра/сек, AVC
  • Аудио №1: русский 384 Кбит/сек, 48,0 КГц, 16 бит, 6 каналов, AC-3 |[NewStudio]|
  • Аудио №2: английский 384 Кбит/сек, 48,0 КГц, 16 бит, 6 каналов, AC-3
  • Релиз от: GEKADOL

    Код:

    Внимание! Раздача ведётся путём добавления новых серий; при каждом добавлении создаётся новый торрент. Чтобы начать докачку новой серии, пользователям необходимо сделать следующее:
    (1) остановить скачивание,
    (2) удалить старый торрент у себя из клиента (старые серии удалять не надо),
    (3) скачать новый торрент и запустить его у себя в клиенте вместо старого, при этом указать клиенту путь в старую папку куда и должно происходить скачивание новых серий.
    Ваш клиент при этом должен произвести хеширование (проверку) старой папки (если не производит сам - помогите ему сделать это), и будет докачивать только те серии которых у вас ещё нет. Старые серии при этом не удаляются, а продолжают раздаваться!
    Eсли вы уже удалили старые серии, то предотвратить повторную закачку старых серий можно, отжав галочку в соответствующих местах при запуске нового торрента. По возможности, желательно не удалять старые серии как можно дольше чтобы релизёр не столько продолжал раздавать старые серии, а смог сконцентрироваться на новых.


    Код:

    Общее
    Полное имя                               : H:\Оставленные (2 Сезон)\The_Leftovers.s02e01.HDTVRip-AVC.NewStudio.TV.mp4
    Формат                                   : MPEG-4
    Профиль формата                          : Base Media
    Идентификатор кодека                     : isom
    Размер файла                             : 1,36 Гбайт
    Продолжительность                        : 1 ч. 1 м.
    Общий поток                              : 3153 Кбит/сек
    Программа кодирования                    : XviD4PSP 7.0.163
    encoding_info                            : MATROSKA / WEBM > MP4 / H264 > X264 CBR 2500kbps HQ1 / AC3 > AC3 CBR 384kbps / AC3 > AC3 CBR 384kbps

    Видео
    Идентификатор                            : 1
    Формат                                   : AVC
    Формат/Информация                        : Advanced Video Codec
    Профиль формата                          : High@L3.1
    Параметр CABAC формата                   : Да
    Параметр ReFrames формата                : 4 кадра
    Идентификатор кодека                     : avc1
    Идентификатор кодека/Информация          : Advanced Video Coding
    Продолжительность                        : 1 ч. 1 м.
    Битрейт                                  : 2380 Кбит/сек
    Номинальный битрейт                      : 2500 Кбит/сек
    Ширина                                   : 1024 пикселя
    Высота                                   : 576 пикселей
    Соотношение сторон                       : 16:9
    Режим частоты кадров                     : Постоянный
    Частота кадров                           : 23,976 кадра/сек
    Цветовое пространство                    : YUV
    Субдискретизация насыщенности            : 4:2:0
    Битовая глубина                          : 8 бит
    Тип развёртки                            : Прогрессивная
    Бит/(Пиксели*Кадры)                      : 0.168
    Размер потока                            : 1,03 Гбайт (75%)
    Библиотека кодирования                   : x264 core 148 r2579M 73ae2d1
    Настройки программы                      : cabac=1 / ref=3 / deblock=1:-1:-1 / analyse=0x3:0x133 / me=hex / subme=7 / psy=1 / psy_rd=1,00:0,20 / mixed_ref=1 / me_range=16 / chroma_me=1 / trellis=1 / 8x8dct=1 / cqm=0 / deadzone=21,11 / fast_pskip=1 / chroma_qp_offset=-3 / threads=6 / lookahead_threads=1 / sliced_threads=0 / nr=0 / decimate=1 / interlaced=0 / bluray_compat=0 / constrained_intra=0 / bframes=3 / b_pyramid=2 / b_adapt=2 / b_bias=0 / direct=3 / weightb=1 / open_gop=0 / weightp=2 / keyint=230 / keyint_min=23 / scenecut=40 / intra_refresh=0 / rc_lookahead=40 / rc=cbr / mbtree=1 / bitrate=2500 / ratetol=1,0 / qcomp=0,60 / qpmin=0 / qpmax=69 / qpstep=4 / vbv_maxrate=2500 / vbv_bufsize=2500 / nal_hrd=none / filler=0 / ip_ratio=1,40 / aq=1:1,00
    Язык                                     : English
    Цветовой диапазон                        : Limited
    Коэффициенты матрицы                     : BT.709

    Аудио #1
    Идентификатор                            : 2
    Формат                                   : AC-3
    Формат/Информация                        : Audio Coding 3
    Расширение режима                        : CM (complete main)
    Параметр Endianness формата              : Big
    Идентификатор кодека                     : ac-3
    Продолжительность                        : 1 ч. 1 м.
    Вид битрейта                             : Постоянный
    Битрейт                                  : 384 Кбит/сек
    Каналы                                   : 6 каналов
    Расположение каналов                     : Front: L C R, Side: L R, LFE
    Частота                                  : 48,0 КГц
    Битовая глубина                          : 16 бит
    Метод сжатия                             : С потерями
    Размер потока                            : 170 Мбайт (12%)
    Язык                                     : Russian

    Аудио #2
    Идентификатор                            : 3
    Формат                                   : AC-3
    Формат/Информация                        : Audio Coding 3
    Расширение режима                        : CM (complete main)
    Параметр Endianness формата              : Big
    Идентификатор кодека                     : ac-3
    Продолжительность                        : 1 ч. 1 м.
    Вид битрейта                             : Постоянный
    Битрейт                                  : 384 Кбит/сек
    Каналы                                   : 6 каналов
    Расположение каналов                     : Front: L C R, Side: L R, LFE
    Частота                                  : 48,0 КГц
    Битовая глубина                          : 16 бит
    Метод сжатия                             : С потерями
    Размер потока                            : 170 Мбайт (12%)
    Язык                                     : English




    Скриншоты:
    скриншот   скриншот   скриншот   скриншот   скриншот  
    скриншот  

    Раздача ведётся путём добавления новых серий. Добавлена 10 серия (09.12.2015).Просьба перекачать торрент файл.

    pb.wtf



  • Скачать Оставленные через торрент http://i70.fastpic.ru/big/2015/1006/80/ac8c855ebc94e8e9c02a23ea18dce180.jpeg Скачать фильм Оставленные через торрент бесплантно в хорошем качестве qw.png Действие разворачивается вокруг группы оставшихся людей в пригородной общине городка Мейплтон. Они должны начать заново строить ... 8.3 10 6
    Info! Золотая раздача, скачанное не засчитывается.
    Торрент: Зарегистрирован [2015-12-09 01:38] · скачан: 45 раз
    Статус: √ проверено
    Размер: 12.54 GB
    Как cкачать? Как скачать Оставленные через торрент | qTorrent

    % Раздел Тема Автор DL S | L
    Зарубежные сериалы [ 23.46 GB ] Оставленные / Остатки / The Leftovers / Сезон: 2 / Серии 1-10 из 10 [2015 HDTVRip 1080p / Amedia] Ворон Скачать
    3 | 0


    Последний раз редактировалось: GEKADOL (2015-12-09 01:38), всего редактировалось 8 раз(а)

    28-11-2019 20:33  

    Отключить всю рекламу на сайте

    06-10-2015 12:36 Оставленные Скачать торрент  

    интересный сериал или нет?pb.wtf



    06-10-2015 13:33 Оставленные Скачать торрент  

    на любителяpb.wtf



    13-10-2015 07:09 Оставленные Скачать торрент  

    спасибо! pb.wtf



    20-10-2015 02:03 Оставленные Скачать торрент  

    dark messian писал(а):

    спасибо!

    pb.wtf



    20-10-2015 05:19 Оставленные Скачать торрент  

    Супер сериал ....pb.wtf



    04-11-2015 10:36 Оставленные Скачать торрент  

    Афтор раздавать будем или с другого ресурса брать?pb.wtf



    16-12-2015 16:15 Оставленные Скачать торрент  

    Сериал просто обалденный. Для нетерпеливых не подойдет.pb.wtf



    29-01-2019 17:19 Оставленные Скачать торрент  

    Спасибо! pb.wtf



    30-01-2019 11:47 Оставленные Скачать торрент  

    Встаньте на раздачу плзpb.wtf



      Дорогой пользователь! Огромная просьба, поблагодарите релизера, оцените раздачу и оставьте свои комментарий, если Вы скачали Оставленные через торрент бесплатно! Внесите свою лепту в развитие PiratBit!
      Комментировать посты могут только пользователи прошедшие не сложную регистрацию
      Показать сообщения:    

      Оставленные через торрент
      Скачать бесплатно Оставленные
      Оставленные скачать торрент
      Оставленные смотреть онлайн
      Cкачать фильм Оставленные бесплатно
      Оставленные скачать торрент в хорошем качестве
      Оставленные смотреть онлайн бесплатно в хорошем качестве


      Вы не можете начинать темы
      Вы не можете отвечать на сообщения
      Вы не можете редактировать свои сообщения
      Вы не можете удалять свои сообщения
      Вы не можете голосовать в опросах
      Вы не можете прикреплять файлы к сообщениям
      Вы можете скачивать файлы