Ссылка на приватное зеркало нашего сайта всего за 1$. Внимание количество ограничено!!!

2 сезон

iTunes

1 сезон

1

iTunes

iTunes

iTunes

1 сезон

RePack

30

ИГРА 18+

pack

ВАЖНО

!!Акция!!

Alien_RageХит недели

RePack

MK11
pack

Забери бонус

RePack

jed

!!Акция!!

Alien_Rage

RePack

fifa19

RePack

Assassins Creed: Odyssey

RePack

NEED FOR SPEED™ PAYBACK

4 сезон

9 сезон

Бесстыжие 9 сезон

Все сериалы

все сериалы на PB.wtf

RePack

FAR CRY 5
  

Отвращение / Repulsion (Роман Полански) [1965, ужасы, триллер, драма, BDRip 720p by msltel] MVO pb.wtf

Отвращение через торрент pb.wtf

Размер: 4.43 GB | Добавлен: 5 лет назад | Торрент скачан:11 раз
Скачать  

06-10-2015 13:42 Отвращение Скачать торрент  

Название: Отвращение
Оригинальное название: Repulsion
Год выпуска: 1965
Страна: Великобритания
Жанр: ужасы, триллер, драма
Продолжительность: 01:45:17
Перевод: профессиональный многоголосый

Режиссёр: Роман Полански

В ролях: Катрин Денёв, Иэн Хендри, Джон Фрейзер, Ивонн Фюрно, Патрик Уаймарк, Рене Хьюстон, Валери Тейлор, Джеймс Виллерс, Хелен Фрейзер, Хью Фатчер, Моника Мерлин, Имоджен Грэм, Майк Прэтт, Максвелл Крэйг, Роман Полански

Описание: Молодая и красивая маникюрша Кэрол психически неуравновешена и опасна для окружающего общества. Девушку оставляют на несколько дней одну дома, и тут всё начинается. Кошмары Кэрол приобретают явственный характер, материализуются. Ей мерещатся трещины в стенах, руки, которые тянутся к ней, чтобы схватить. пространство вокруг начинает растягиваться и сжиматься...



Качество: BDRip 720p Сравнение с исходником
Формат: MKV
Видео: MPEG-4 AVC, 5524 Kбит/с, 1200x720, 23,976 кадра/с
Аудио 1: русский, AC3, 192 kbps, 2 ch, 48 kHz [профессиональный многоголосый]
Аудио 2: английский, AC3, 192 kbps, 1 ch, 48 kHz [оригинал]
Субтитры: русские
Британская академия, 1966 год
Номинации (1):
Лучшая работа оператора (ч/б фильмы)

Берлинский кинофестиваль, 1965 год
Победитель (2):
Серебряный Медведь - специальный приз жюри
Приз международной ассоциации кинокритиков (ФИПРЕССИ)

Номинации (1):
Золотой Медведь
Общее
Уникальный идентификатор : 243295564307568741661162079555980830080 (0xB709057188E93F89B350132E61EB2580)
Полное имя : D:VideoОтвращение.1965.BDRip.720p.mkv
Формат : Matroska
Версия формата : Version 4 / Version 2
Размер файла : 4,43 Гбайт
Продолжительность : 1 ч. 45 м.
Общий поток : 6028 Кбит/сек
Название фильма : BDRip -- STarankov
Дата кодирования : UTC 2015-10-06 03:41:30
Программа кодирования : mkvmerge v8.2.0 ('World of Adventure') 64bit
Библиотека кодирования : libebml v1.3.1 + libmatroska v1.4.2
DURATION : 01:41:55.675000000
NUMBER_OF_FRAMES : 352
NUMBER_OF_BYTES : 24045
_STATISTICS_WRITING_APP : mkvmerge v8.2.0 ('World of Adventure') 64bit
_STATISTICS_WRITING_DATE_UTC : 2015-10-06 03:41:30
_STATISTICS_TAGS : BPS DURATION NUMBER_OF_FRAMES NUMBER_OF_BYTES

Видео
Идентификатор : 1
Формат : AVC
Формат/Информация : Advanced Video Codec
Профиль формата : High@L4.1
Параметр CABAC формата : Да
Параметр ReFrames формата : 4 кадра
Идентификатор кодека : V_MPEG4/ISO/AVC
Продолжительность : 1 ч. 45 м.
Битрейт : 5524 Кбит/сек
Ширина : 1200 пикселей
Высота : 720 пикселей
Соотношение сторон : 5:3
Режим частоты кадров : Постоянный
Частота кадров : 23,976 кадра/сек
Цветовое пространство : YUV
Субдискретизация насыщенности : 4:2:0
Битовая глубина : 8 бит
Тип развёртки : Прогрессивная
Бит/(Пиксели*Кадры) : 0.267
Размер потока : 4,06 Гбайт (92%)
Библиотека кодирования : x264 core 146 r2538 121396c
Настройки программы : cabac=1 / ref=4 / deblock=1:-3:-3 / analyse=0x3:0x113 / me=umh / subme=10 / psy=1 / psy_rd=1.00:0.15 / mixed_ref=1 / me_range=32 / chroma_me=1 / trellis=2 / 8x8dct=1 / cqm=0 / deadzone=21,11 / fast_pskip=1 / chroma_qp_offset=-3 / threads=6 / lookahead_threads=1 / sliced_threads=0 / nr=0 / decimate=1 / interlaced=0 / bluray_compat=0 / constrained_intra=0 / bframes=13 / b_pyramid=2 / b_adapt=2 / b_bias=0 / direct=1 / weightb=1 / open_gop=0 / weightp=2 / keyint=230 / keyint_min=23 / scenecut=40 / intra_refresh=0 / rc_lookahead=40 / rc=crf / mbtree=0 / crf=21.0 / qcomp=0.60 / qpmin=0 / qpmax=69 / qpstep=4 / vbv_maxrate=40000 / vbv_bufsize=50000 / crf_max=0.0 / nal_hrd=none / filler=0 / ip_ratio=1.40 / pb_ratio=1.30 / aq=1:1.00
Язык : English
Default : Да
Forced : Нет
DURATION : 01:45:16.644000000
NUMBER_OF_FRAMES : 151448
NUMBER_OF_BYTES : 4454369674
_STATISTICS_WRITING_APP : mkvmerge v8.2.0 ('World of Adventure') 64bit
_STATISTICS_WRITING_DATE_UTC : 2015-10-06 03:41:30
_STATISTICS_TAGS : BPS DURATION NUMBER_OF_FRAMES NUMBER_OF_BYTES

Аудио #1
Идентификатор : 2
Формат : AC-3
Формат/Информация : Audio Coding 3
Расширение режима : CM (complete main)
Параметр Endianness формата : Big
Идентификатор кодека : A_AC3
Продолжительность : 1 ч. 45 м.
Вид битрейта : Постоянный
Битрейт : 192 Кбит/сек
Каналы : 2 канала
Расположение каналов : Front: L R
Частота : 48,0 КГц
Метод сжатия : С потерями
Размер потока : 145 Мбайт (3%)
Заголовок : MVO
Язык : Russian
Default : Да
Forced : Нет

Аудио #2
Идентификатор : 3
Формат : AC-3
Формат/Информация : Audio Coding 3
Расширение режима : CM (complete main)
Параметр Endianness формата : Big
Идентификатор кодека : A_AC3
Продолжительность : 1 ч. 45 м.
Вид битрейта : Постоянный
Битрейт : 192 Кбит/сек
Каналы : 1 канал
Расположение каналов : Front: C
Частота : 48,0 КГц
Метод сжатия : С потерями
Размер потока : 145 Мбайт (3%)
Заголовок : Original
Язык : English
Default : Нет
Forced : Нет

Текст
Идентификатор : 4
Формат : UTF-8
Идентификатор кодека : S_TEXT/UTF8
Идентификатор кодека/Информация : UTF-8 Plain Text
Заголовок : русский
Язык : Russian
Default : Нет
Forced : Нет
pb.wtf



Скачать Отвращение через торрент http://i72.fastpic.ru/big/2015/1006/97/ae564617a66b5c221221841d708bd697.jpg Скачать фильм Отвращение через торрент бесплантно в хорошем качестве Описание: Молодая и красивая маникюрша Кэрол психически неуравновешена и опасна для окружающего общества. Девушку оставляют на несколько ... 10 10 3
Info! Золотая раздача, скачанное не засчитывается.
Торрент: Зарегистрирован [2015-10-06 13:42] · скачан: 11 раз
Статус: √ проверено
Размер: 4.43 GB
Как cкачать? Как скачать Отвращение через торрент | qTorrent

% Раздел Тема Автор DL S | L
Фильмы [HD 720p, 1080p] (Хороший звук DUB, MVO) [ 10.09 GB ] Отвращение / Repulsion [1965 BDRip 1080p by msltel] MVO msltel Скачать
1 | 0
Фильмы до 2000 г. [ 2.72 GB ] Отвращение / Repulsion [1965 BDRip AVC by msltel] MVO msltel Скачать
1 | 0
Фильмы (Blu-ray, BD-Remux, HDDVD) [ 26.08 GB ] Отвращение / Repulsion [1965 BDRemux 1080p от ExKinoRay] MVO Ворон Скачать
1 | 0

28-11-2019 20:33  

Отключить всю рекламу на сайте

    Дорогой пользователь! Огромная просьба, поблагодарите релизера, оцените раздачу и оставьте свои комментарий, если Вы скачали Отвращение через торрент бесплатно! Внесите свою лепту в развитие PiratBit!
    Комментировать посты могут только пользователи прошедшие не сложную регистрацию
    Показать сообщения:    

    Отвращение через торрент
    Скачать бесплатно Отвращение
    Отвращение скачать торрент
    Отвращение смотреть онлайн
    Cкачать фильм Отвращение бесплатно
    Отвращение скачать торрент в хорошем качестве
    Отвращение смотреть онлайн бесплатно в хорошем качестве


    Вы не можете начинать темы
    Вы не можете отвечать на сообщения
    Вы не можете редактировать свои сообщения
    Вы не можете удалять свои сообщения
    Вы не можете голосовать в опросах
    Вы не можете прикреплять файлы к сообщениям
    Вы можете скачивать файлы