Лицензия

MVO

1

1 сезон

Лицензия

Лицензия

13

MVO

1 сезон

Deluxe Edition

pack

Рекомендуем

30

Repack

ВАЖНО

ВАЖНО

Ghostwire

RePack

jed

RePack

fifa19

RePack

RDR2

RePack

NEED FOR SPEED™ PAYBACK

RePack

Кинопоиск HD

 Острые козырьки 6 сезон

6 сезон

FAR CRY 6

RePack

Лицензия

MVO

1

1 сезон

1 сезон

Лицензия

  

Упс… Ной уплыл! / Ooops! Noah is Gone... (Тоби Генкель , Шон МакКормак) [2015, мультфильм, комедия, приключения, BDRip 720p] DUB - Лицензия / iTunes

Упс… Ной уплыл! через торрент pb.wtf

Размер: 4.02 GB | Добавлен: 6 лет 11 мес. назад | Торрент скачан:288 раз
Смотреть онлайн Упс… Ной уплыл! | Скачать   

06-10-2015 17:16 Упс… Ной уплыл! Скачать торрент  

Упс… Ной уплыл! / Ooops! Noah is Gone...
«1 ark. 50,000 animals. What could go wrong?»

Год выпуска: 2015
Страна: Германия, Бельгия, Люксембург, Ирландия, США
Жанр: мультфильм, комедия, приключения
Продолжительность: 01:26:28
Перевод: Дубляж - [Лицензия / iTunes]
Режиссер: Тоби Генкель , Шон МакКормак
В ролях: Дермот Магеннис (Dave / Mr. Griffin / Prairie Dog, озвучка), Каллум Малони (Finny, озвучка), Тара Флинн (Hazel, озвучка), Ава Коннолли (Leah, озвучка), Пол Тайлак (Obesey / Stayput / Chimpanzee, озвучка), Алан Стэнфорд (Lion, озвучка), Эйлин Митен (Mrs. Griffin / Flamingo / Mrs. Guard / Margaret, озвучка), Патрик Фицсимонс (Tanglefoot / Mr. Guard / Siberian Tiger, озвучка), Карла Бекер (Rhinoceros, озвучка), Франциска Фриде (Baby Hippopotamus #1 / Songbird #1, озвучка), Лотта Долл (Baby Hippopotamus #2, озвучка), Тина Эшманн (Songbird #2, озвучка)
Описание:
Грядет всемирный потоп, и старина Ной вот-вот отчалит. Самое время для зверей занять свои каюты. Но, увы, повезло не всем - кое-кто фейсконтроль не прошел. Теперь ему придется как следует постараться, чтобы перехитрить судьбу и заскочить на подножку уплывающего ковчега.
, MPAA: G - Нет возрастных ограничений
Качество: BDRip 720p
Формат: MKV
Видео: AVC, 1280x696 (16:9), 5826 kbps, 24 fps, 0,272 bpp
Аудио №1: русский / AC3 / 5.1 / 48 kHz / 384 kbps / 16 bit ||
Аудио №2: английский / AC3 / 5.1 / 48 kHz / 448 kbps / 16 bit

Код:

General
Unique ID                                : 217351523321031712672950869688075842018 (0xA384617702D8B12F939062D83BF271E2)
Complete name                            : E:\торрент\UpZZ...NO1Y.UpLL1LLL.2015.D.BDRip.720p.mkv
Format                                   : Matroska
Format version                           : Version 2
File size                                : 4.02 GiB
Duration                                 : 1h 26mn
Overall bit rate                         : 6 658 Kbps
Encoded date                             : UTC 2015-10-04 02:48:24
Writing application                      : mkvmerge v8.3.0 ('Over the Horizon') 64bit
Writing library                          : libebml v1.3.1 + libmatroska v1.4.2
DURATION                                 : 01:26:12.448000000
NUMBER_OF_FRAMES                         : 161639
NUMBER_OF_BYTES                          : 248277504
_STATISTICS_WRITING_APP                  : mkvmerge v8.3.0 ('Over the Horizon') 64bit
_STATISTICS_WRITING_DATE_UTC             : 2015-10-04 02:48:24
_STATISTICS_TAGS                         : BPS DURATION NUMBER_OF_FRAMES NUMBER_OF_BYTES

Video
ID                                       : 1
Format                                   : AVC
Format/Info                              : Advanced Video Codec
Format profile                           : [email protected]
Format settings, CABAC                   : Yes
Format settings, ReFrames                : 4 frames
Codec ID                                 : V_MPEG4/ISO/AVC
Duration                                 : 1h 26mn
Bit rate                                 : 5 826 Kbps
Width                                    : 1 280 pixels
Height                                   : 696 pixels
Display aspect ratio                     : 1.85:1
Frame rate mode                          : Constant
Frame rate                               : 24.000 fps
Color space                              : YUV
Chroma subsampling                       : 4:2:0
Bit depth                                : 8 bits
Scan type                                : Progressive
Bits/(Pixel*Frame)                       : 0.272
Stream size                              : 3.44 GiB (86%)
Writing library                          : x264 core 125 r2200 999b753
Encoding settings                        : cabac=1 / ref=1 / deblock=1:0:0 / analyse=0x3:0x113 / me=umh / subme=5 / psy=1 / psy_rd=1.00:0.00 / mixed_ref=0 / me_range=22 / chroma_me=1 / trellis=0 / 8x8dct=1 / cqm=0 / deadzone=21,11 / fast_pskip=1 / chroma_qp_offset=0 / threads=12 / lookahead_threads=2 / sliced_threads=0 / nr=0 / decimate=1 / interlaced=0 / bluray_compat=0 / constrained_intra=0 / bframes=3 / b_pyramid=2 / b_adapt=1 / b_bias=0 / direct=3 / weightb=1 / open_gop=0 / weightp=1 / keyint=250 / keyint_min=23 / scenecut=40 / intra_refresh=0 / rc_lookahead=10 / rc=2pass / mbtree=1 / bitrate=5826 / ratetol=1.0 / qcomp=0.60 / qpmin=0 / qpmax=69 / qpstep=4 / cplxblur=20.0 / qblur=0.5 / ip_ratio=1.40 / aq=1:1.00
Language                                 : English
Default                                  : Yes
Forced                                   : No
DURATION                                 : 01:26:28.088000000
NUMBER_OF_FRAMES                         : 124514
NUMBER_OF_BYTES                          : 3777766998
_STATISTICS_WRITING_APP                  : mkvmerge v8.3.0 ('Over the Horizon') 64bit
_STATISTICS_WRITING_DATE_UTC             : 2015-10-04 02:48:24
_STATISTICS_TAGS                         : BPS DURATION NUMBER_OF_FRAMES NUMBER_OF_BYTES

Audio #1
ID                                       : 2
Format                                   : AC-3
Format/Info                              : Audio Coding 3
Mode extension                           : CM (complete main)
Format settings, Endianness              : Big
Codec ID                                 : A_AC3
Duration                                 : 1h 26mn
Bit rate mode                            : Constant
Bit rate                                 : 384 Kbps
Channel(s)                               : 6 channels
Channel positions                        : Front: L C R, Side: L R, LFE
Sampling rate                            : 48.0 KHz
Bit depth                                : 16 bits
Compression mode                         : Lossy
Stream size                              : 237 MiB (6%)
Language                                 : Russian
Default                                  : Yes
Forced                                   : No

Audio #2
ID                                       : 3
Format                                   : AC-3
Format/Info                              : Audio Coding 3
Mode extension                           : CM (complete main)
Format settings, Endianness              : Big
Codec ID                                 : A_AC3
Duration                                 : 1h 26mn
Bit rate mode                            : Constant
Bit rate                                 : 448 Kbps
Channel(s)                               : 6 channels
Channel positions                        : Front: L C R, Side: L R, LFE
Sampling rate                            : 48.0 KHz
Bit depth                                : 16 bits
Compression mode                         : Lossy
Stream size                              : 277 MiB (7%)
Language                                 : English
Default                                  : No
Forced                                   : No

!Ворон писал(а):


subme=5



Скачать Упс… Ной уплыл! через торрент http://i4-imageban-ru.translate.goog/out/2015/10/06/f8f7a8a90f50e132da8acf7d2ca53fa1.jpg Скачать, смотреть онлайн Упс… Ной уплыл! бесплантно в хорошем качестве Описание: Грядет всемирный потоп, и старина Ной вот-вот отчалит. Самое время для зверей занять свои каюты. Но, увы, повезло не всем - ... 10 10 12
Торрент: Зарегистрирован [2015-10-06 17:16] · скачан: 288 раз
Статус: T временная
Размер: 4.02 GB
Как cкачать? Как скачать Упс… Ной уплыл! через торрент | UTorrent

28-11-2019 20:33  

Отключить вcю реклaмy на сайте

06-10-2015 17:39 Упс… Ной уплыл! Скачать торрент  

Пийти не так:)



    Дорогой пользователь! Огромная просьба, поблагодарите релизера, оцените раздачу и оставьте свои комментарий, если Вы скачали Упс… Ной уплыл! через торрент бесплатно!!
    Комментировать посты могут только пользователи прошедшие не сложную регистрацию
    Показать сообщения:    


    Упс… Ной уплыл! через торрент
    Скачать бесплатно Упс… Ной уплыл!
    Упс… Ной уплыл! скачать торрент
    Упс… Ной уплыл! смотреть онлайн
    Cкачать фильм Упс… Ной уплыл! бесплатно
    Упс… Ной уплыл! скачать торрент в хорошем качестве
    Упс… Ной уплыл! смотреть онлайн бесплатно в хорошем качестве
    Вы не можете начинать темы
    Вы не можете отвечать на сообщения
    Вы не можете редактировать свои сообщения
    Вы не можете удалять свои сообщения
    Вы не можете голосовать в опросах
    Вы не можете прикреплять файлы к сообщениям
    Вы можете скачивать файлы